File Size366.1 MB (383,932,048 bytes)
DownloadClickNUpload | DownloadGG | GoFile | KrakenFiles | MdiaLoad | MultiUp
  • BdUpload
  • DownAce
  • Fichier
  • FileCloud
  • Filerio
  • FilesCdn
  • IndiShare
  • Kbagi
  • Turbobit
  • UpToBox
  • Uppit
HashesCRC32: B9BD77BE, MD5: ED9028B1141AF9D5FB4DEC8A95BECAD5, SHA1: 8930500E1991D02724F8C8A3DE92BB0CDF979E5C, SHA256: B3328EF4B288A75EE3B3A66F331AA81057132DC6C8020F9AB8BF1FA517CD7851, ED2K: 1D9BBD48DA870DB7427FC956F2B3BCA3
Screenshots
screenshotscreenshotscreenshotscreenshotscreenshot
Additional Info
General
Unique ID                                : 195958953498816780920806400541051163411 (0x936C5257178187D1937C2719A2E99313)
Complete name                            : [New-raws] Yumemiru Danshi wa Genjitsushugisha - 08 [1080p] [ENG].mkv
Format                                   : Matroska
Format version                           : Version 4
File size                                : 366 MiB
Duration                                 : 23 min 41 s
Overall bit rate                         : 2 161 kb/s
Encoded date                             : UTC 2023-08-21 18:16:58
Writing application                      : mkvmerge v26.0.0 ('In The Game') 64-bit
Writing library                          : libebml v1.3.6 + libmatroska v1.4.9

Video
ID                                       : 1
Format                                   : AVC
Format/Info                              : Advanced Video Codec
Format profile                           : Main@L4
Format settings                          : CABAC / 3 Ref Frames
Format settings, CABAC                   : Yes
Format settings, Reference frames        : 3 frames
Format settings, GOP                     : M=1, N=25
Codec ID                                 : V_MPEG4/ISO/AVC
Duration                                 : 23 min 41 s
Bit rate mode                            : Constant
Bit rate                                 : 1 963 kb/s
Nominal bit rate                         : 3 000 kb/s
Width                                    : 1 920 pixels
Height                                   : 1 080 pixels
Display aspect ratio                     : 16:9
Frame rate mode                          : Constant
Frame rate                               : 23.976 (24000/1001) FPS
Color space                              : YUV
Chroma subsampling                       : 4:2:0
Bit depth                                : 8 bits
Scan type                                : Progressive
Bits/(Pixel*Frame)                       : 0.039
Stream size                              : 333 MiB (91%)
Default                                  : Yes
Forced                                   : No

Audio
ID                                       : 2
Format                                   : AAC LC
Format/Info                              : Advanced Audio Codec Low Complexity
Codec ID                                 : A_AAC-2
Duration                                 : 23 min 41 s
Bit rate                                 : 192 kb/s
Channel(s)                               : 2 channels
Channel layout                           : L R
Sampling rate                            : 48.0 kHz
Frame rate                               : 46.875 FPS (1024 SPF)
Compression mode                         : Lossy
Stream size                              : 33.2 MiB (9%)
Default                                  : Yes
Forced                                   : No
beta
Anime DDL+NZB mirror
Current Time: 16/07/2024 08:56



About/FAQs

Discord