File Size233.9 MB (245,246,030 bytes)
DownloadClickNUpload | DailyUploads | DownloadGG | GoFile | KrakenFiles | MdiaLoad | MultiUp
  • BdUpload
  • DownAce
  • Fichier
  • FileCloud
  • Filerio
  • FilesCdn
  • IndiShare
  • Kbagi
  • Turbobit
  • UpToBox
  • Uppit
| Uppit
HashesCRC32: AA0C650A, MD5: 75F365DC62F1CA9F1BBD14A253F6C12B, SHA1: E4B178C4C3F3EB04E2CCBB4EEEFB08670BD01851, SHA256: C76161514D398D2A28112068154C069DC8137AAAAEA6A2CC047A9C655A244A84, ED2K: B77A3E0DCC3DBC0C7AF19A6E1E900BF5
Screenshots
screenshotscreenshotscreenshotscreenshotscreenshot
SubtitlesAll Attachments | eng [SRT]
Additional Info
General
Unique ID                                : 231196061141487030023747694399770664291 (0xADEEBDE135AE7AEF8A9484EECA9D1D63)
Complete name                            : [New-raws] Tsuki ga Michibiku Isekai Douchuu S2 - 06 [1080p] [ENG].mkv
Format                                   : Matroska
Format version                           : Version 4
File size                                : 234 MiB
Duration                                 : 23 min 40 s
Overall bit rate                         : 1 381 kb/s
Frame rate                               : 23.976 FPS
Encoded date                             : 2024-02-12 15:02:53 UTC
Writing application                      : mkvmerge v26.0.0 ('In The Game') 64-bit
Writing library                          : libebml v1.3.6 + libmatroska v1.4.9

Video
ID                                       : 1
Format                                   : HEVC
Format/Info                              : High Efficiency Video Coding
Format profile                           : Main@L5@Main
Codec ID                                 : V_MPEGH/ISO/HEVC
Duration                                 : 23 min 40 s
Bit rate                                 : 1 201 kb/s
Width                                    : 1 920 pixels
Height                                   : 1 080 pixels
Display aspect ratio                     : 16:9
Frame rate mode                          : Constant
Frame rate                               : 23.976 (24000/1001) FPS
Original frame rate                      : 23.976 (23976/1000) FPS
Color space                              : YUV
Chroma subsampling                       : 4:2:0
Bit depth                                : 8 bits
Bits/(Pixel*Frame)                       : 0.024
Stream size                              : 203 MiB (87%)
Default                                  : Yes
Forced                                   : No
Color range                              : Limited
Color primaries                          : BT.709
Transfer characteristics                 : BT.709
Matrix coefficients                      : BT.709

Audio
ID                                       : 2
Format                                   : AAC LC
Format/Info                              : Advanced Audio Codec Low Complexity
Codec ID                                 : A_AAC-2
Duration                                 : 23 min 40 s
Bit rate                                 : 178 kb/s
Channel(s)                               : 2 channels
Channel layout                           : L R
Sampling rate                            : 48.0 kHz
Frame rate                               : 46.875 FPS (1024 SPF)
Compression mode                         : Lossy
Delay relative to video                  : -167 ms
Stream size                              : 30.1 MiB (13%)
Default                                  : Yes
Forced                                   : No

Text
ID                                       : 3
Format                                   : UTF-8
Codec ID                                 : S_TEXT/UTF8
Codec ID/Info                            : UTF-8 Plain Text
Duration                                 : 23 min 38 s
Bit rate                                 : 75 b/s
Frame rate                               : 0.302 FPS
Count of elements                        : 428
Stream size                              : 13.0 KiB (0%)
Language                                 : English
Default                                  : Yes
Forced                                   : No
beta
Anime DDL+NZB mirror
Current Time: 23/05/2024 06:57



About/FAQs

Discord