File Size200.6 MB (210,366,374 bytes)
DownloadClickNUpload | DailyUploads | DownloadGG | GoFile | KrakenFiles | MdiaLoad | MultiUp
  • BdUpload
  • DownAce
  • Fichier
  • FileCloud
  • Filerio
  • FilesCdn
  • IndiShare
  • Kbagi
  • Turbobit
  • UpToBox
  • Uppit
| Uppit
HashesCRC32: 113C7CBF, MD5: 48EB2925DED111529B5A44E1BC59D661, SHA1: C4BF414C7F6B6E39D889EFC9C9DB15B6C31EFD69, SHA256: 568EAF62602A2FA75305533CABB5F3B067A73538D010A7924CAEB9E0600171FD, ED2K: 69EA406646C4BAD32705DBFEAC241E10
Screenshots
screenshotscreenshotscreenshotscreenshotscreenshot
SubtitlesAll Attachments | eng [SRT]
Additional Info
General
Unique ID                                : 217577168002151235001062162645068885766 (0xA3AFD69B4A2478A139201C6774E52F06)
Complete name                            : [New-raws] Tensei shitara Slime Datta Ken - Coleus no Yume - 01 [1080p] [ENG].mkv
Format                                   : Matroska
Format version                           : Version 4
File size                                : 201 MiB
Duration                                 : 24 min 30 s
Overall bit rate                         : 1 145 kb/s
Frame rate                               : 23.976 FPS
Encoded date                             : 2023-10-31 16:14:02 UTC
Writing application                      : mkvmerge v26.0.0 ('In The Game') 64-bit
Writing library                          : libebml v1.3.6 + libmatroska v1.4.9

Video
ID                                       : 1
Format                                   : HEVC
Format/Info                              : High Efficiency Video Coding
Format profile                           : Main@L5@Main
Codec ID                                 : V_MPEGH/ISO/HEVC
Duration                                 : 24 min 30 s
Bit rate                                 : 962 kb/s
Width                                    : 1 920 pixels
Height                                   : 1 080 pixels
Display aspect ratio                     : 16:9
Frame rate mode                          : Constant
Frame rate                               : 23.976 (24000/1001) FPS
Original frame rate                      : 23.976 (23976/1000) FPS
Color space                              : YUV
Chroma subsampling                       : 4:2:0
Bit depth                                : 8 bits
Bits/(Pixel*Frame)                       : 0.019
Stream size                              : 169 MiB (84%)
Default                                  : Yes
Forced                                   : No
Color range                              : Limited
Color primaries                          : BT.709
Transfer characteristics                 : BT.709
Matrix coefficients                      : BT.709

Audio
ID                                       : 2
Format                                   : AAC LC
Format/Info                              : Advanced Audio Codec Low Complexity
Codec ID                                 : A_AAC-2
Duration                                 : 24 min 30 s
Bit rate                                 : 181 kb/s
Channel(s)                               : 2 channels
Channel layout                           : L R
Sampling rate                            : 48.0 kHz
Frame rate                               : 46.875 FPS (1024 SPF)
Compression mode                         : Lossy
Delay relative to video                  : -167 ms
Stream size                              : 31.6 MiB (16%)
Default                                  : Yes
Forced                                   : No

Text
ID                                       : 3
Format                                   : UTF-8
Codec ID                                 : S_TEXT/UTF8
Codec ID/Info                            : UTF-8 Plain Text
Duration                                 : 24 min 24 s
Bit rate                                 : 80 b/s
Frame rate                               : 0.289 FPS
Count of elements                        : 423
Stream size                              : 14.3 KiB (0%)
Language                                 : English
Default                                  : Yes
Forced                                   : No
beta
Anime DDL+NZB mirror
Current Time: 28/05/2024 07:42



About/FAQs

Discord