File Size204.7 MB (214,602,282 bytes)
DownloadClickNUpload | DailyUploads | DownloadGG | GoFile | KrakenFiles | MdiaLoad | MultiUp
  • BdUpload
  • DownAce
  • Fichier
  • FileCloud
  • Filerio
  • FilesCdn
  • IndiShare
  • Kbagi
  • Turbobit
  • UpToBox
  • Uppit
| Uppit
HashesCRC32: 20FA8DC8, MD5: 65ED1567F4D2490FCA4A4A775DA7DC9A, SHA1: 1FCE44D41934CA9DBE07967699FD74685921BAB3, SHA256: 9E1790E8AF42A0D314DDDF15464CFAA502F659C4C2325C575FB4F59C4DF725F1, ED2K: 88EA15F1484DD491B0AE8408712EE87C
Screenshots
screenshotscreenshotscreenshotscreenshotscreenshot
SubtitlesAll Attachments | eng [SRT]
Additional Info
General
Unique ID                                : 239326456129888546979998419785616223605 (0xB40C994D3722836AFFDD1974A70C6D75)
Complete name                            : [New-raws] Tensei shitara Slime Datta Ken - Coleus no Yume - 03 [1080p] [ENG].mkv
Format                                   : Matroska
Format version                           : Version 4
File size                                : 205 MiB
Duration                                 : 24 min 30 s
Overall bit rate                         : 1 168 kb/s
Frame rate                               : 23.976 FPS
Encoded date                             : 2023-10-31 16:14:36 UTC
Writing application                      : mkvmerge v26.0.0 ('In The Game') 64-bit
Writing library                          : libebml v1.3.6 + libmatroska v1.4.9

Video
ID                                       : 1
Format                                   : HEVC
Format/Info                              : High Efficiency Video Coding
Format profile                           : Main@L5@Main
Codec ID                                 : V_MPEGH/ISO/HEVC
Duration                                 : 24 min 30 s
Bit rate                                 : 977 kb/s
Width                                    : 1 920 pixels
Height                                   : 1 080 pixels
Display aspect ratio                     : 16:9
Frame rate mode                          : Constant
Frame rate                               : 23.976 (24000/1001) FPS
Original frame rate                      : 23.976 (23976/1000) FPS
Color space                              : YUV
Chroma subsampling                       : 4:2:0
Bit depth                                : 8 bits
Bits/(Pixel*Frame)                       : 0.020
Stream size                              : 171 MiB (84%)
Default                                  : Yes
Forced                                   : No
Color range                              : Limited
Color primaries                          : BT.709
Transfer characteristics                 : BT.709
Matrix coefficients                      : BT.709

Audio
ID                                       : 2
Format                                   : AAC LC
Format/Info                              : Advanced Audio Codec Low Complexity
Codec ID                                 : A_AAC-2
Duration                                 : 24 min 30 s
Bit rate                                 : 192 kb/s
Channel(s)                               : 2 channels
Channel layout                           : L R
Sampling rate                            : 48.0 kHz
Frame rate                               : 46.875 FPS (1024 SPF)
Compression mode                         : Lossy
Delay relative to video                  : -167 ms
Stream size                              : 33.0 MiB (16%)
Default                                  : Yes
Forced                                   : No

Text
ID                                       : 3
Format                                   : UTF-8
Codec ID                                 : S_TEXT/UTF8
Codec ID/Info                            : UTF-8 Plain Text
Duration                                 : 22 min 52 s
Bit rate                                 : 75 b/s
Frame rate                               : 0.293 FPS
Count of elements                        : 402
Stream size                              : 12.6 KiB (0%)
Language                                 : English
Default                                  : Yes
Forced                                   : No
beta
Anime DDL+NZB mirror
Current Time: 28/05/2024 07:23



About/FAQs

Discord