File Size208.9 MB (219,067,646 bytes)
DownloadClickNUpload | DailyUploads | DownloadGG | GoFile | KrakenFiles | MdiaLoad | MultiUp
  • BdUpload
  • DownAce
  • Fichier
  • FileCloud
  • Filerio
  • FilesCdn
  • IndiShare
  • Kbagi
  • Turbobit
  • UpToBox
  • Uppit
| Uppit
HashesCRC32: 299A14EF, MD5: 8087D9812493C0A4126FD4A204205C2C, SHA1: B8C26E3B521CE9016D94C5225866C53238197797, SHA256: 8ECE47C50C6759123A901AA6BA7A773F48459A631EBCBB575017018140A68D14, ED2K: 504F329BE33CB5297ABDB0107A5DAE92
Screenshots
screenshotscreenshotscreenshotscreenshotscreenshot
SubtitlesAll Attachments | eng [SRT]
Additional Info
General
Unique ID                                : 28577391528885961532078233084767575915 (0x157FCE2F348F97FEA6C4D8E1E2B11F6B)
Complete name                            : [New-raws] Tensei shitara Slime Datta Ken - Coleus no Yume - 02 [1080p] [ENG].mkv
Format                                   : Matroska
Format version                           : Version 4
File size                                : 209 MiB
Duration                                 : 24 min 30 s
Overall bit rate                         : 1 192 kb/s
Frame rate                               : 23.976 FPS
Encoded date                             : 2023-10-31 16:14:24 UTC
Writing application                      : mkvmerge v26.0.0 ('In The Game') 64-bit
Writing library                          : libebml v1.3.6 + libmatroska v1.4.9

Video
ID                                       : 1
Format                                   : HEVC
Format/Info                              : High Efficiency Video Coding
Format profile                           : Main@L5@Main
Codec ID                                 : V_MPEGH/ISO/HEVC
Duration                                 : 24 min 29 s
Bit rate                                 : 1 004 kb/s
Width                                    : 1 920 pixels
Height                                   : 1 080 pixels
Display aspect ratio                     : 16:9
Frame rate mode                          : Constant
Frame rate                               : 23.976 (24000/1001) FPS
Original frame rate                      : 23.976 (23976/1000) FPS
Color space                              : YUV
Chroma subsampling                       : 4:2:0
Bit depth                                : 8 bits
Bits/(Pixel*Frame)                       : 0.020
Stream size                              : 176 MiB (84%)
Default                                  : Yes
Forced                                   : No
Color range                              : Limited
Color primaries                          : BT.709
Transfer characteristics                 : BT.709
Matrix coefficients                      : BT.709

Audio
ID                                       : 2
Format                                   : AAC LC
Format/Info                              : Advanced Audio Codec Low Complexity
Codec ID                                 : A_AAC-2
Duration                                 : 24 min 30 s
Bit rate                                 : 186 kb/s
Channel(s)                               : 2 channels
Channel layout                           : L R
Sampling rate                            : 48.0 kHz
Frame rate                               : 46.875 FPS (1024 SPF)
Compression mode                         : Lossy
Delay relative to video                  : -167 ms
Stream size                              : 32.5 MiB (16%)
Default                                  : Yes
Forced                                   : No

Text
ID                                       : 3
Format                                   : UTF-8
Codec ID                                 : S_TEXT/UTF8
Codec ID/Info                            : UTF-8 Plain Text
Duration                                 : 24 min 15 s
Bit rate                                 : 75 b/s
Frame rate                               : 0.291 FPS
Count of elements                        : 424
Stream size                              : 13.5 KiB (0%)
Language                                 : English
Default                                  : Yes
Forced                                   : No
beta
Anime DDL+NZB mirror
Current Time: 28/05/2024 06:51



About/FAQs

Discord