File Size274.6 MB (287,973,510 bytes)
DownloadClickNUpload | DailyUploads | DownloadGG | GoFile | KrakenFiles | MdiaLoad | MultiUp
  • BdUpload
  • DownAce
  • Fichier
  • FileCloud
  • Filerio
  • FilesCdn
  • IndiShare
  • Kbagi
  • Turbobit
  • UpToBox
  • Uppit
| Uppit
HashesCRC32: 1738A33A, MD5: 847A05F8E370B16B9ACFAE523FFD9C22, SHA1: 646D667EB933701DF7237CD38771C7287FA2FEC6, SHA256: 12B492952D7135EFE6AF2A01C4BB6B7283BCD3BB7CC898322CF6951722E4A7E3, ED2K: 9EE83DEA297237F73908013FD09FE5F8
Screenshots
screenshotscreenshotscreenshotscreenshotscreenshot
SubtitlesAll Attachments | eng [SRT]
Additional Info
General
Unique ID                                : 300139909743398878763310806592844454177 (0xE1CCD80E4A431FB9073523316623D921)
Complete name                            : [New-raws] Kikansha no Mahou wa Tokubetsu desu - 11 [1080p] [ENG].mkv
Format                                   : Matroska
Format version                           : Version 4
File size                                : 275 MiB
Duration                                 : 23 min 45 s
Overall bit rate                         : 1 617 kb/s
Frame rate                               : 23.976 FPS
Encoded date                             : 2023-12-16 16:32:43 UTC
Writing application                      : mkvmerge v26.0.0 ('In The Game') 64-bit
Writing library                          : libebml v1.3.6 + libmatroska v1.4.9

Video
ID                                       : 1
Format                                   : HEVC
Format/Info                              : High Efficiency Video Coding
Format profile                           : Main@L5@Main
Codec ID                                 : V_MPEGH/ISO/HEVC
Duration                                 : 23 min 44 s
Bit rate                                 : 1 419 kb/s
Width                                    : 1 920 pixels
Height                                   : 1 080 pixels
Display aspect ratio                     : 16:9
Frame rate mode                          : Constant
Frame rate                               : 23.976 (23976/1000) FPS
Color space                              : YUV
Chroma subsampling                       : 4:2:0
Bit depth                                : 8 bits
Bits/(Pixel*Frame)                       : 0.029
Stream size                              : 241 MiB (88%)
Default                                  : Yes
Forced                                   : No
Color range                              : Limited
Color primaries                          : BT.709
Transfer characteristics                 : BT.709
Matrix coefficients                      : BT.709

Audio
ID                                       : 2
Format                                   : AAC LC
Format/Info                              : Advanced Audio Codec Low Complexity
Codec ID                                 : A_AAC-2
Duration                                 : 23 min 45 s
Bit rate                                 : 192 kb/s
Channel(s)                               : 2 channels
Channel layout                           : L R
Sampling rate                            : 48.0 kHz
Frame rate                               : 46.875 FPS (1024 SPF)
Compression mode                         : Lossy
Delay relative to video                  : -167 ms
Stream size                              : 33.2 MiB (12%)
Default                                  : Yes
Forced                                   : No

Text
ID                                       : 3
Format                                   : UTF-8
Codec ID                                 : S_TEXT/UTF8
Codec ID/Info                            : UTF-8 Plain Text
Duration                                 : 23 min 3 s
Bit rate                                 : 21 b/s
Frame rate                               : 0.113 FPS
Count of elements                        : 156
Stream size                              : 3.61 KiB (0%)
Language                                 : English
Default                                  : Yes
Forced                                   : No
beta
Anime DDL+NZB mirror
Current Time: 28/05/2024 07:45



About/FAQs

Discord