File Size302.6 MB (317,280,780 bytes)
DownloadClickNUpload | DailyUploads | DownloadGG | GoFile | KrakenFiles | MdiaLoad | MultiUp
  • BdUpload
  • DownAce
  • Fichier
  • FileCloud
  • Filerio
  • FilesCdn
  • IndiShare
  • Kbagi
  • Turbobit
  • UpToBox
  • Uppit
| Uppit
HashesCRC32: 040F16A8, MD5: 7F85C41BAFA43968A01E46AFAC9425F0, SHA1: 4EAF34C28E190ED030038ABFBFE40ACE0FB835F3, SHA256: CBB1839BD7B5BF8A8BEF21DFE526939933CE1C4A356B3DD3D8ACCC77F42E1723, ED2K: DA0E24169B69D35DD7C8BDEAC581B9A8
Screenshots
screenshotscreenshotscreenshotscreenshotscreenshot
SubtitlesAll Attachments | eng [SRT]
Additional Info
General
Unique ID                                : 185528032163468464917716628649248547748 (0x8B936636576FAA44444B1FC9D187E3A4)
Complete name                            : [New-raws] Kikansha no Mahou wa Tokubetsu desu - 07 [1080p] [ENG].mkv
Format                                   : Matroska
Format version                           : Version 4
File size                                : 303 MiB
Duration                                 : 23 min 45 s
Overall bit rate                         : 1 781 kb/s
Frame rate                               : 23.976 FPS
Encoded date                             : 2023-11-18 16:32:48 UTC
Writing application                      : mkvmerge v26.0.0 ('In The Game') 64-bit
Writing library                          : libebml v1.3.6 + libmatroska v1.4.9

Video
ID                                       : 2
Format                                   : HEVC
Format/Info                              : High Efficiency Video Coding
Format profile                           : Main@L5@Main
Codec ID                                 : V_MPEGH/ISO/HEVC
Duration                                 : 23 min 45 s
Bit rate                                 : 1 578 kb/s
Width                                    : 1 920 pixels
Height                                   : 1 080 pixels
Display aspect ratio                     : 16:9
Frame rate mode                          : Constant
Frame rate                               : 23.976 (24000/1001) FPS
Original frame rate                      : 23.976 (23976/1000) FPS
Color space                              : YUV
Chroma subsampling                       : 4:2:0
Bit depth                                : 8 bits
Bits/(Pixel*Frame)                       : 0.032
Stream size                              : 268 MiB (89%)
Default                                  : Yes
Forced                                   : No
Color range                              : Limited
Color primaries                          : BT.709
Transfer characteristics                 : BT.709
Matrix coefficients                      : BT.709

Audio
ID                                       : 3
Format                                   : AAC LC
Format/Info                              : Advanced Audio Codec Low Complexity
Codec ID                                 : A_AAC-2
Duration                                 : 23 min 45 s
Bit rate                                 : 201 kb/s
Channel(s)                               : 2 channels
Channel layout                           : L R
Sampling rate                            : 48.0 kHz
Frame rate                               : 46.875 FPS (1024 SPF)
Compression mode                         : Lossy
Delay relative to video                  : -167 ms
Stream size                              : 34.1 MiB (11%)
Default                                  : Yes
Forced                                   : No

Text
ID                                       : 1
Format                                   : UTF-8
Codec ID                                 : S_TEXT/UTF8
Codec ID/Info                            : UTF-8 Plain Text
Duration                                 : 23 min 33 s
Bit rate                                 : 40 b/s
Frame rate                               : 0.197 FPS
Count of elements                        : 278
Stream size                              : 7.02 KiB (0%)
Language                                 : English
Default                                  : Yes
Forced                                   : No
beta
Anime DDL+NZB mirror
Current Time: 14/06/2024 18:06



About/FAQs

Discord