File Size296.1 MB (310,494,413 bytes)
DownloadAnonFiles | ClickNUpload | DownloadGG | MultiUp
  • BdUpload
  • DownAce
  • Fichier
  • FileCloud
  • Filerio
  • FilesCdn
  • IndiShare
  • Kbagi
  • Turbobit
  • UpToBox
  • Uppit
| ZippyShare
HashesCRC32: 696C71E5, MD5: 409938C0CB6578255CB4C765FF974310, SHA1: E1B8A1C5846EC062856A740164CCFD625D3C37C6, SHA256: 89FE1AA68FE6AF1A733CF99E448ACD609A78F6F61F16443F3D63455068D4F05B, ED2K: 397FBD65C0A4EEF8B8E06DA59236EAC4
Screenshots
screenshotscreenshotscreenshotscreenshotscreenshot
Additional Info
General
Unique ID                                : 188634675197521538479322145691393664357 (0x8DE9B78A1E43486C99CADF6EAECD2565)
Complete name                            : NEW Doraemon (2005) - 2009.01.23 (157) [RG][696C71E5].mkv
Format                                   : Matroska
Format version                           : Version 1
File size                                : 296 MiB
Duration                                 : 22 min 39 s
Overall bit rate                         : 1 828 kb/s
Encoded date                             : UTC 2009-08-10 15:20:21
Writing application                      : mkvmerge v2.5.2 ('Stranger in your Soul') built on Feb 28 2009 18:58:17
Writing library                          : libebml v0.7.7 + libmatroska v0.8.1

Video
ID                                       : 1
Format                                   : AVC
Format/Info                              : Advanced Video Codec
Format profile                           : High@L4.1
Format settings                          : CABAC / 8 Ref Frames
Format settings, CABAC                   : Yes
Format settings, Reference frames        : 8 frames
Codec ID                                 : V_MPEG4/ISO/AVC
Duration                                 : 22 min 39 s
Bit rate                                 : 1 663 kb/s
Nominal bit rate                         : 1 000 kb/s
Width                                    : 1 280 pixels
Height                                   : 720 pixels
Display aspect ratio                     : 16:9
Frame rate mode                          : Constant
Frame rate                               : 29.970 (30000/1001) FPS
Color space                              : YUV
Chroma subsampling                       : 4:2:0
Bit depth                                : 8 bits
Scan type                                : Progressive
Bits/(Pixel*Frame)                       : 0.060
Stream size                              : 269 MiB (91%)
Title                                    : Subbed by Rocket Gang http://rocketgang.net
Writing library                          : x264 core 68 r1183M f21daff
Encoding settings                        : cabac=1 / ref=8 / deblock=1:1:1 / analyse=0x3:0x113 / me=umh / subme=7 / psy_rd=0.6:0.0 / mixed_ref=1 / me_range=16 / chroma_me=1 / trellis=1 / 8x8dct=1 / cqm=0 / deadzone=21,11 / chroma_qp_offset=-2 / threads=1 / nr=0 / decimate=1 / mbaff=0 / bframes=3 / b_pyramid=0 / b_adapt=2 / b_bias=0 / direct=3 / wpredb=0 / keyint=250 / keyint_min=25 / scenecut=40 / rc=2pass / bitrate=1000 / ratetol=1.0 / qcomp=0.60 / qpmin=10 / qpmax=51 / qpstep=4 / cplxblur=20.0 / qblur=0.5 / vbv_maxrate=50000 / vbv_bufsize=50000 / ip_ratio=1.40 / pb_ratio=1.30 / aq=0
Language                                 : Japanese
Default                                  : Yes
Forced                                   : No

Audio
ID                                       : 2
Format                                   : MPEG Audio
Format version                           : Version 1
Format profile                           : Layer 3
Codec ID                                 : A_MPEG/L3
Codec ID/Hint                            : MP3
Duration                                 : 22 min 39 s
Bit rate mode                            : Constant
Bit rate                                 : 128 kb/s
Channel(s)                               : 2 channels
Sampling rate                            : 48.0 kHz
Compression mode                         : Lossy
Stream size                              : 20.7 MiB (7%)
Language                                 : Japanese
Default                                  : Yes
Forced                                   : No
beta
Anime DDL+NZB mirror
Current Time: 23/07/2024 02:11



About/FAQs

Discord