File Size622.5 MB (652,749,115 bytes)
DownloadClickNUpload | Jheberg | OpenLoad
MultiUp: Part1
  • BdUpload
  • DownAce
  • Fichier
  • FileCloud
  • Filerio
  • FilesCdn
  • IndiShare
  • Kbagi
  • Turbobit
  • UpToBox
  • Uppit
, Part2
  • BdUpload
  • DownAce
  • Fichier
  • FileCloud
  • Filerio
  • FilesCdn
  • IndiShare
  • Kbagi
  • Turbobit
  • UpToBox
  • Uppit

Sendspace: Part1, Part2, Part3
SolidFiles: Part1, Part2
ZippyShare: Part1, Part2
HashesCRC32: 2F43E8F2, MD5: 5E8DB76DC7A1B7540F2C5162AF487C12, SHA1: D1BF1CD10438A844E1BC55C3612F044496FF3B20, SHA256: B9F53726F290B48F17BC414454E6F528DEA2ABD7F2F84F6225F4364F11E44470, ED2K: B1B22D2AA99B93E86160FC253378E01B
Screenshots
screenshotscreenshotscreenshotscreenshotscreenshot
SubtitlesAll Attachments | English (no honorifics) [eng, ASS], English (with honorifics) [enm, ASS]
Additional Info
General
Unique ID                                : 107611167251036663204048618558627511414 (0x50F5282CF3E2D17D53F0E26F1C8BFC76)
Complete name                            : [NeSubs] Karakai Jouzu no Takagi-san 2 - Episode 3 (English Softsub).mkv
Format                                   : Matroska
Format version                           : Version 4
File size                                : 623 MiB
Duration                                 : 23 min 42 s
Overall bit rate mode                    : Variable
Overall bit rate                         : 3 672 kb/s
Encoded date                             : UTC 2019-07-22 02:25:05
Writing application                      : mkvmerge v34.0.0 ('Sight and Seen') 64-bit
Writing library                          : libebml v1.3.7 + libmatroska v1.5.0 / Lavf57.71.100
Attachments                              : A-OTF-FOLKPRO-HEAVY.OTF / COMICS REGULAR.TTF / FOT-ANTICCEZANNEPRO-DB.OTF / FOT-RODINMARIAPRO-B.OTF / GEORGIA.TTF / GEORGIAB.TTF / UFONTS.COM_ARIAL-ROUNDED-MT-BOLD.TTF / CHALKBOARD BY MARTA VAN ECK.TTF

Video
ID                                       : 1
Format                                   : AVC
Format/Info                              : Advanced Video Codec
Format profile                           : Main@L4
Format settings                          : CABAC / 3 Ref Frames
Format settings, CABAC                   : Yes
Format settings, ReFrames                : 3 frames
Codec ID                                 : V_MPEG4/ISO/AVC
Duration                                 : 23 min 42 s
Bit rate mode                            : Variable
Bit rate                                 : 3 480 kb/s
Maximum bit rate                         : 5 220 kb/s
Width                                    : 1 920 pixels
Height                                   : 1 080 pixels
Display aspect ratio                     : 16:9
Frame rate mode                          : Constant
Frame rate                               : 23.976 (24000/1001) FPS
Color space                              : YUV
Chroma subsampling                       : 4:2:0
Bit depth                                : 8 bits
Scan type                                : Progressive
Bits/(Pixel*Frame)                       : 0.070
Stream size                              : 588 MiB (94%)
Writing library                          : x264 core 148 r2715 7e75228
Encoding settings                        : cabac=1 / ref=3 / deblock=1:0:0 / analyse=0x1:0x111 / me=umh / subme=10 / psy=1 / psy_rd=1.00:0.00 / mixed_ref=1 / me_range=24 / chroma_me=1 / trellis=2 / 8x8dct=0 / cqm=0 / deadzone=21,11 / fast_pskip=1 / chroma_qp_offset=-2 / threads=8 / lookahead_threads=1 / sliced_threads=0 / nr=0 / decimate=1 / interlaced=0 / bluray_compat=0 / stitchable=1 / constrained_intra=0 / bframes=2 / b_pyramid=0 / b_adapt=2 / b_bias=0 / direct=3 / weightb=1 / open_gop=0 / weightp=2 / keyint=250 / keyint_min=23 / scenecut=0 / intra_refresh=0 / rc_lookahead=48 / rc=2pass / mbtree=1 / bitrate=3480 / ratetol=1.0 / qcomp=0.50 / qpmin=6 / qpmax=51 / qpstep=4 / cplxblur=20.0 / qblur=0.5 / vbv_maxrate=5220 / vbv_bufsize=6960 / nal_hrd=vbr / filler=0 / ip_ratio=1.40 / aq=1:1.00
Default                                  : Yes
Forced                                   : No

Audio
ID                                       : 2
Format                                   : E-AC-3
Format/Info                              : Enhanced AC-3
Commercial name                          : Dolby Digital Plus
Codec ID                                 : A_EAC3
Duration                                 : 23 min 42 s
Bit rate mode                            : Constant
Bit rate                                 : 128 kb/s
Channel(s)                               : 2 channels
Channel layout                           : L R
Sampling rate                            : 48.0 kHz
Frame rate                               : 31.250 FPS (1536 SPF)
Compression mode                         : Lossy
Stream size                              : 21.7 MiB (3%)
Service kind                             : Complete Main
Default                                  : Yes
Forced                                   : No

Text #1
ID                                       : 3
Format                                   : ASS
Codec ID                                 : S_TEXT/ASS
Codec ID/Info                            : Advanced Sub Station Alpha
Duration                                 : 23 min 25 s
Bit rate                                 : 195 b/s
Count of elements                        : 445
Compression mode                         : Lossless
Stream size                              : 33.5 KiB (0%)
Title                                    : English (no honorifics)
Language                                 : English
Default                                  : No
Forced                                   : No

Text #2
ID                                       : 4
Format                                   : ASS
Codec ID                                 : S_TEXT/ASS
Codec ID/Info                            : Advanced Sub Station Alpha
Duration                                 : 23 min 25 s
Bit rate                                 : 195 b/s
Count of elements                        : 445
Compression mode                         : Lossless
Stream size                              : 33.5 KiB (0%)
Title                                    : English (with honorifics)
Language                                 : enm
Default                                  : No
Forced                                   : No
beta
Anime DDL+NZB mirror
Current Time: 15/12/2019 10:29



About/FAQs