File Size0.996 GB (1,069,897,311 bytes)
DownloadClickNUpload | DownloadGG | GoFile | KrakenFiles | MdiaLoad
MultiUp: Part1
  • BdUpload
  • DownAce
  • Fichier
  • FileCloud
  • Filerio
  • FilesCdn
  • IndiShare
  • Kbagi
  • Turbobit
  • UpToBox
  • Uppit
, Part2
  • BdUpload
  • DownAce
  • Fichier
  • FileCloud
  • Filerio
  • FilesCdn
  • IndiShare
  • Kbagi
  • Turbobit
  • UpToBox
  • Uppit
, Part3
  • BdUpload
  • DownAce
  • Fichier
  • FileCloud
  • Filerio
  • FilesCdn
  • IndiShare
  • Kbagi
  • Turbobit
  • UpToBox
  • Uppit
HashesCRC32: D67B9BD7, MD5: 5E2B43A79B4EF833031F81AC634EC68A, SHA1: 6E475E12E38D84BEE74525E82B5D3BA11EF31386, SHA256: 3C52E73392E3330AA646F9AC437D272DB24B1972F054BBA00F678C592B7D1CB1, ED2K: FA721E69FD1EFD1258FF4790559E27E1
Screenshots
screenshotscreenshotscreenshotscreenshotscreenshot
SubtitlesAll Attachments | Arabic [ara, ASS], English [eng, ASS], French [fre, ASS], German [ger, ASS], Italian [ita, ASS], Portuguese(Brazil) [por, ASS], Russian [rus, ASS], Spanish(Latin_America) [spa, ASS], Spanish [spa, ASS]
Additional Info
General
Unique ID                                : 126817539580635330061408109724708813339 (0x5F682B7124C9C3C471050BEC7ABABA1B)
Complete name                            : [NeoLX] Zom 100 - Bucket List of the Dead - S01E08 [1080p x264 10bits AAC][Multiple Subtitles].mkv
Format                                   : Matroska
Format version                           : Version 4
File size                                : 1 020 MiB
Duration                                 : 23 min 52 s
Overall bit rate                         : 5 977 kb/s
Writing application                      : Lavf60.5.100
Writing library                          : Lavf60.5.100
ErrorDetectionType                       : Per level 1
Attachments                              : arialbd.ttf / arialbi.ttf / Arial_0.ttf / ariblk_0.TTF / calibri.ttf / comicbd.ttf / comic_0.ttf / georgiab.ttf / georgiaz.ttf / georgia_0.ttf / impact_0.ttf / Tahoma_0.ttf / times_0.ttf / trebuc_0.ttf / verdana_0.ttf / AdobeArabic-Bold.otf / AdobeArabic-BoldItalic.otf / AdobeArabic-Italic.otf / AdobeArabic-Regular.otf

Video
ID                                       : 1
Format                                   : AVC
Format/Info                              : Advanced Video Codec
Format profile                           : High 10@L5
Format settings                          : CABAC / 5 Ref Frames
Format settings, CABAC                   : Yes
Format settings, Reference frames        : 5 frames
Codec ID                                 : V_MPEG4/ISO/AVC
Duration                                 : 23 min 52 s
Bit rate                                 : 5 611 kb/s
Width                                    : 1 920 pixels
Height                                   : 1 080 pixels
Display aspect ratio                     : 16:9
Frame rate mode                          : Constant
Frame rate                               : 23.976 (24000/1001) FPS
Color space                              : YUV
Chroma subsampling                       : 4:2:0
Bit depth                                : 10 bits
Scan type                                : Progressive
Bits/(Pixel*Frame)                       : 0.113
Stream size                              : 958 MiB (94%)
Writing library                          : Lavc60.10.100 libx264
Language                                 : Japanese
Default                                  : Yes
Forced                                   : No
VENDOR_ID                                : NeoLX

Audio
ID                                       : 2
Format                                   : AAC LC
Format/Info                              : Advanced Audio Codec Low Complexity
Codec ID                                 : A_AAC-2
Duration                                 : 23 min 52 s
Bit rate                                 : 318 kb/s
Channel(s)                               : 2 channels
Channel layout                           : L R
Sampling rate                            : 48.0 kHz
Frame rate                               : 46.875 FPS (1024 SPF)
Compression mode                         : Lossy
Stream size                              : 54.3 MiB (5%)
Language                                 : Japanese
Default                                  : Yes
Forced                                   : No
VENDOR_ID                                : NeoLX

Text #1
ID                                       : 3
Format                                   : ASS
Codec ID                                 : S_TEXT/ASS
Codec ID/Info                            : Advanced Sub Station Alpha
Duration                                 : 23 min 49 s
Bit rate                                 : 169 b/s
Count of elements                        : 352
Compression mode                         : Lossless
Stream size                              : 29.5 KiB (0%)
Title                                    : Arabic
Language                                 : Arabic
Default                                  : No
Forced                                   : No

Text #2
ID                                       : 4
Format                                   : ASS
Codec ID                                 : S_TEXT/ASS
Codec ID/Info                            : Advanced Sub Station Alpha
Duration                                 : 23 min 49 s
Bit rate                                 : 179 b/s
Count of elements                        : 402
Compression mode                         : Lossless
Stream size                              : 31.3 KiB (0%)
Title                                    : English
Language                                 : English
Default                                  : Yes
Forced                                   : No

Text #3
ID                                       : 5
Format                                   : ASS
Codec ID                                 : S_TEXT/ASS
Codec ID/Info                            : Advanced Sub Station Alpha
Duration                                 : 23 min 51 s
Bit rate                                 : 174 b/s
Count of elements                        : 352
Compression mode                         : Lossless
Stream size                              : 30.6 KiB (0%)
Title                                    : French
Language                                 : French
Default                                  : No
Forced                                   : No

Text #4
ID                                       : 6
Format                                   : ASS
Codec ID                                 : S_TEXT/ASS
Codec ID/Info                            : Advanced Sub Station Alpha
Duration                                 : 23 min 51 s
Bit rate                                 : 480 b/s
Count of elements                        : 383
Compression mode                         : Lossless
Stream size                              : 84.0 KiB (0%)
Title                                    : German
Language                                 : German
Default                                  : No
Forced                                   : No

Text #5
ID                                       : 7
Format                                   : ASS
Codec ID                                 : S_TEXT/ASS
Codec ID/Info                            : Advanced Sub Station Alpha
Duration                                 : 23 min 51 s
Bit rate                                 : 166 b/s
Count of elements                        : 383
Compression mode                         : Lossless
Stream size                              : 29.1 KiB (0%)
Title                                    : Italian
Language                                 : Italian
Default                                  : No
Forced                                   : No

Text #6
ID                                       : 8
Format                                   : ASS
Codec ID                                 : S_TEXT/ASS
Codec ID/Info                            : Advanced Sub Station Alpha
Duration                                 : 23 min 49 s
Bit rate                                 : 164 b/s
Count of elements                        : 393
Compression mode                         : Lossless
Stream size                              : 28.6 KiB (0%)
Title                                    : Portuguese(Brazil)
Language                                 : Portuguese
Default                                  : No
Forced                                   : No

Text #7
ID                                       : 9
Format                                   : ASS
Codec ID                                 : S_TEXT/ASS
Codec ID/Info                            : Advanced Sub Station Alpha
Duration                                 : 23 min 51 s
Bit rate                                 : 211 b/s
Count of elements                        : 348
Compression mode                         : Lossless
Stream size                              : 36.9 KiB (0%)
Title                                    : Russian
Language                                 : Russian
Default                                  : No
Forced                                   : No

Text #8
ID                                       : 10
Format                                   : ASS
Codec ID                                 : S_TEXT/ASS
Codec ID/Info                            : Advanced Sub Station Alpha
Duration                                 : 23 min 51 s
Bit rate                                 : 205 b/s
Count of elements                        : 425
Compression mode                         : Lossless
Stream size                              : 36.0 KiB (0%)
Title                                    : Spanish(Latin_America)
Language                                 : Spanish
Default                                  : No
Forced                                   : No

Text #9
ID                                       : 11
Format                                   : ASS
Codec ID                                 : S_TEXT/ASS
Codec ID/Info                            : Advanced Sub Station Alpha
Duration                                 : 23 min 51 s
Bit rate                                 : 192 b/s
Count of elements                        : 389
Compression mode                         : Lossless
Stream size                              : 33.7 KiB (0%)
Title                                    : Spanish
Language                                 : Spanish
Default                                  : No
Forced                                   : No
beta
Anime DDL+NZB mirror
Current Time: 20/07/2024 23:05



About/FAQs

Discord