File Size438.8 MB (460,099,895 bytes)
DownloadClickNUpload | Go4Up | Jheberg | MultiUp
  • ClickNupload
  • Fichier
  • Filerio
  • Free
  • Fufox
  • HugeFiles
  • Mightyupload
  • ToutBox
  • Turbobit
  • UpToBox
  • Uplea
  • UploadBaz
  • Uploadable
  • Uploaded
  • Uppit
  • Userscloud
| OpenLoad | SolidFiles
Sendspace: Part1, Part2
HashesCRC32: ED6B3230, MD5: EA4974D40101F7521E35871C0B1D9D70, SHA1: BCFD657354AB638B3A1828469F57E608E59DDD2A, SHA256: A9F0C6BB25927A4B82FF816F7120F2136FBBA8B02FD5CA7CC5913EDE70D7B9F1, ED2K: E8CE2EE591D672292DF81B1C6D5A689C
Screenshots
screenshotscreenshotscreenshotscreenshotscreenshot
Additional Info
General
Complete name                            : Naruto Shippuden (Dub) Episode 377.mp4
Format                                   : MPEG-4
Format profile                           : Base Media / Version 2
Codec ID                                 : mp42 (isom/iso2/avc1/mp41)
File size                                : 439 MiB
Duration                                 : 23 min 6 s
Overall bit rate mode                    : Variable
Overall bit rate                         : 2 654 kb/s
Encoded date                             : UTC 2017-04-15 12:51:55
Tagged date                              : UTC 2017-04-15 12:51:55
Writing application                      : HandBrake 1.0.2 2017012200

Video
ID                                       : 1
Format                                   : AVC
Format/Info                              : Advanced Video Codec
Format profile                           : Main@L4.1
Format settings, CABAC                   : Yes
Format settings, ReFrames                : 4 frames
Codec ID                                 : avc1
Codec ID/Info                            : Advanced Video Coding
Duration                                 : 23 min 6 s
Bit rate                                 : 2 488 kb/s
Width                                    : 1 280 pixels
Height                                   : 720 pixels
Display aspect ratio                     : 16:9
Frame rate mode                          : Constant
Frame rate                               : 30.000 FPS
Color space                              : YUV
Chroma subsampling                       : 4:2:0
Bit depth                                : 8 bits
Scan type                                : Progressive
Bits/(Pixel*Frame)                       : 0.090
Stream size                              : 411 MiB (94%)
Writing library                          : x264 core 148 r2708 86b7198
Encoding settings                        : cabac=1 / ref=2 / deblock=1:0:0 / analyse=0x1:0x111 / me=hex / subme=6 / psy=1 / psy_rd=1.00:0.00 / mixed_ref=1 / me_range=16 / chroma_me=1 / trellis=1 / 8x8dct=0 / cqm=0 / deadzone=21,11 / fast_pskip=1 / chroma_qp_offset=-2 / threads=12 / lookahead_threads=2 / sliced_threads=0 / nr=0 / decimate=1 / interlaced=0 / bluray_compat=0 / constrained_intra=0 / bframes=3 / b_pyramid=2 / b_adapt=1 / b_bias=0 / direct=1 / weightb=1 / open_gop=0 / weightp=1 / keyint=600 / keyint_min=60 / scenecut=40 / intra_refresh=0 / rc_lookahead=30 / rc=crf / mbtree=1 / crf=20.0 / qcomp=0.60 / qpmin=0 / qpmax=69 / qpstep=4 / vbv_maxrate=50000 / vbv_bufsize=62500 / crf_max=0.0 / nal_hrd=none / filler=0 / ip_ratio=1.40 / aq=1:1.00
Encoded date                             : UTC 2017-04-15 12:51:55
Tagged date                              : UTC 2017-04-15 12:51:55
Color range                              : Limited
Color primaries                          : BT.709
Transfer characteristics                 : BT.709
Matrix coefficients                      : BT.709

Audio
ID                                       : 2
Format                                   : AAC
Format/Info                              : Advanced Audio Codec
Format profile                           : LC
Codec ID                                 : 40
Duration                                 : 23 min 6 s
Bit rate mode                            : Variable
Bit rate                                 : 160 kb/s
Channel(s)                               : 2 channels
Channel positions                        : Front: L R
Sampling rate                            : 48.0 kHz
Frame rate                               : 46.875 FPS (1024 spf)
Compression mode                         : Lossy
Stream size                              : 26.4 MiB (6%)
Title                                    : Stereo / Stereo
Language                                 : English
Default                                  : Yes
Alternate group                          : 1
Encoded date                             : UTC 2017-04-15 12:51:55
Tagged date                              : UTC 2017-04-15 12:51:55
beta
Anime DDL+NZB mirror
Current Time: 07/08/2020 11:45



About/FAQs