File Size884.8 MB (927,755,528 bytes)
DownloadClickNUpload | DiskoKosmiko | Jheberg | MultiUp | OpenLoad
Sendspace: Part1, Part2, Part3
SolidFiles: Part1, Part2
ZippyShare: Part1, Part2
Encrypted DownloadDirect
Password:
HashesCRC32: 7E3E4AEB, MD5: 3048FDAE5F175254E3F166D65FB386E8, SHA1: 81C13257DC35AFA259812BFDB14660BE7847B0F0, SHA256: C060DF190BFD89CF55298C4F54A4E44E87C36BFDC0427E67759872296BD49D74, ED2K: 0CCD0C040AE343204045B8D49EF2A3B7
Screenshots
screenshotscreenshotscreenshotscreenshotscreenshot
SubtitlesAll Attachments | English(US) [eng, ASS]
Additional Info
General
Unique ID                                : 209686073744845812660452447253182751962 (0x9DC0119F2544E49A37176731CBDF24DA)
Complete name                            : Naruto Shippuden - 320 - Run, Omoi!.mkv
Format                                   : Matroska
Format version                           : Version 4 / Version 2
File size                                : 885 MiB
Duration                                 : 23 min 9 s
Overall bit rate                         : 5 341 kb/s
Encoded date                             : UTC 2018-09-18 13:00:45
Writing application                      : mkvmerge v26.0.0 ('In The Game') 64-bit
Writing library                          : libebml v1.3.6 + libmatroska v1.4.9

Video
ID                                       : 1
Format                                   : AVC
Format/Info                              : Advanced Video Codec
Format profile                           : High@L4
Format settings, CABAC                   : Yes
Format settings, ReFrames                : 4 frames
Codec ID                                 : V_MPEG4/ISO/AVC
Duration                                 : 23 min 9 s
Bit rate                                 : 5 018 kb/s
Width                                    : 1 920 pixels
Height                                   : 1 080 pixels
Display aspect ratio                     : 16:9
Frame rate mode                          : Constant
Frame rate                               : 23.976 (24000/1001) FPS
Color space                              : YUV
Chroma subsampling                       : 4:2:0
Bit depth                                : 8 bits
Scan type                                : Progressive
Bits/(Pixel*Frame)                       : 0.101
Stream size                              : 831 MiB (94%)
Writing library                          : x264 core 142
Encoding settings                        : cabac=1 / ref=4 / deblock=1:1:1 / analyse=0x3:0x113 / me=umh / subme=8 / psy=1 / psy_rd=0.40:0.00 / mixed_ref=1 / me_range=16 / chroma_me=1 / trellis=1 / 8x8dct=1 / cqm=0 / deadzone=21,11 / fast_pskip=1 / chroma_qp_offset=-2 / threads=12 / lookahead_threads=2 / sliced_threads=0 / nr=0 / decimate=1 / interlaced=0 / bluray_compat=0 / constrained_intra=0 / bframes=3 / b_pyramid=2 / b_adapt=2 / b_bias=0 / direct=3 / weightb=1 / open_gop=0 / weightp=2 / keyint=48 / keyint_min=24 / scenecut=40 / intra_refresh=0 / rc_lookahead=48 / rc=crf / mbtree=1 / crf=15.0 / qcomp=0.60 / qpmin=0 / qpmax=69 / qpstep=4 / vbv_maxrate=8000 / vbv_bufsize=12000 / crf_max=0.0 / nal_hrd=none / filler=0 / ip_ratio=1.40 / aq=1:0.60
Default                                  : Yes
Forced                                   : No

Audio #1
ID                                       : 2
Format                                   : AAC
Format/Info                              : Advanced Audio Codec
Format profile                           : LC
Codec ID                                 : A_AAC
Duration                                 : 23 min 9 s
Bit rate                                 : 192 kb/s
Channel(s)                               : 2 channels
Channel positions                        : Front: L R
Sampling rate                            : 44.1 kHz
Frame rate                               : 43.066 FPS (1024 spf)
Compression mode                         : Lossy
Delay relative to video                  : -83 ms
Stream size                              : 31.8 MiB (4%)
Language                                 : English
Default                                  : Yes
Forced                                   : No

Audio #2
ID                                       : 3
Format                                   : AAC
Format/Info                              : Advanced Audio Codec
Format profile                           : LC
Codec ID                                 : A_AAC
Duration                                 : 23 min 9 s
Bit rate                                 : 128 kb/s
Channel(s)                               : 2 channels
Channel positions                        : Front: L R
Sampling rate                            : 44.1 kHz
Frame rate                               : 43.066 FPS (1024 spf)
Compression mode                         : Lossy
Delay relative to video                  : -83 ms
Stream size                              : 21.2 MiB (2%)
Language                                 : Japanese
Default                                  : No
Forced                                   : No

Text
ID                                       : 4
Format                                   : ASS
Codec ID                                 : S_TEXT/ASS
Codec ID/Info                            : Advanced Sub Station Alpha
Duration                                 : 21 min 38 s
Bit rate                                 : 108 b/s
Count of elements                        : 262
Compression mode                         : Lossless
Stream size                              : 17.3 KiB (0%)
Title                                    : English(US)
Language                                 : English
Default                                  : Yes
Forced                                   : No

Other Files in this Torrent
Naruto Shippuden - 320 - Run, Omoi!.mkv
beta
Anime DDL+NZB mirror
Current Time: 05/12/2019 17:22



About/FAQs