[MystVortex] Maria†Holic - 03 [BD][1080p][AAC][MP4].mp4


File Size523.5 MB (548,908,600 bytes)
DownloadJheberg | MultiUp
AnonFiles: Part1, Part2
Go4Up: Part1, Part2
Sendspace: Part1, Part2
ShareBeast: Part1, Part2, Part3
SolidFiles: Part1, Part2
HashesCRC32: 76B65857, MD5: 80EF7D2B6132870FE2354913C558D16F, SHA1: B28FE28F7A93444C26BE1367BFBC412D9AC2198A, ED2K: 236E88ECA28C81E61B5A08AF30797733
Screenshots
screenshotscreenshotscreenshotscreenshotscreenshot
Additional Info
General
Complete name                            : [MystVortex] Maria†Holic - 03 [BD][1080p][AAC][MP4].mp4
Format                                   : MPEG-4
Format profile                           : Base Media / Version 2
Codec ID                                 : mp42
File size                                : 523 MiB
Duration                                 : 25mn 38s
Overall bit rate mode                    : Variable
Overall bit rate                         : 2 855 Kbps
Encoded date                             : UTC 2014-10-18 05:38:27
Tagged date                              : UTC 2014-10-18 05:50:45
Writing application                      : HandBrake 0.9.9 2013052900

Video
ID                                       : 1
Format                                   : AVC
Format/Info                              : Advanced Video Codec
Format profile                           : Main@L4.0
Format settings, CABAC                   : Yes
Format settings, ReFrames                : 4 frames
Codec ID                                 : avc1
Codec ID/Info                            : Advanced Video Coding
Duration                                 : 25mn 37s
Bit rate                                 : 2 691 Kbps
Width                                    : 1 920 pixels
Height                                   : 1 080 pixels
Display aspect ratio                     : 16:9
Frame rate mode                          : Variable
Frame rate                               : 23.976 fps
Minimum frame rate                       : 23.810 fps
Maximum frame rate                       : 24.390 fps
Color space                              : YUV
Chroma subsampling                       : 4:2:0
Bit depth                                : 8 bits
Scan type                                : Progressive
Bits/(Pixel*Frame)                       : 0.054
Stream size                              : 493 MiB (94%)
Writing library                          : x264 core 130 r2273 b3065e6
Encoding settings                        : cabac=1 / ref=1 / deblock=1:0:0 / analyse=0x1:0x111 / me=hex / subme=2 / psy=1 / psy_rd=1.00:0.00 / mixed_ref=0 / me_range=16 / chroma_me=1 / trellis=0 / 8x8dct=0 / cqm=0 / deadzone=21,11 / fast_pskip=1 / chroma_qp_offset=0 / threads=6 / lookahead_threads=2 / sliced_threads=0 / nr=0 / decimate=1 / interlaced=0 / bluray_compat=0 / constrained_intra=0 / bframes=3 / b_pyramid=2 / b_adapt=1 / b_bias=0 / direct=1 / weightb=1 / open_gop=0 / weightp=1 / keyint=240 / keyint_min=24 / scenecut=40 / intra_refresh=0 / rc_lookahead=10 / rc=crf / mbtree=1 / crf=20.0 / qcomp=0.60 / qpmin=0 / qpmax=69 / qpstep=4 / vbv_maxrate=20000 / vbv_bufsize=25000 / crf_max=0.0 / nal_hrd=none / ip_ratio=1.40 / aq=1:1.00
Encoded date                             : UTC 2014-10-18 05:38:27
Tagged date                              : UTC 2014-10-18 05:50:43
Color primaries                          : BT.709
Transfer characteristics                 : BT.709
Matrix coefficients                      : BT.709

Audio
ID                                       : 2
Format                                   : AAC
Format/Info                              : Advanced Audio Codec
Format profile                           : LC
Codec ID                                 : 40
Duration                                 : 25mn 38s
Bit rate mode                            : Variable
Bit rate                                 : 160 Kbps
Maximum bit rate                         : 337 Kbps
Channel(s)                               : 2 channels
Channel positions                        : Front: L R
Sampling rate                            : 48.0 KHz
Compression mode                         : Lossy
Stream size                              : 29.3 MiB (6%)
Language                                 : Japanese
Encoded date                             : UTC 2014-10-18 05:38:27
Tagged date                              : UTC 2014-10-18 05:50:42

Menu
ID                                       : 3
Codec ID                                 : text
Duration                                 : 25mn 37s
Encoded date                             : UTC 2014-10-18 05:38:27
Tagged date                              : UTC 2014-10-18 05:50:43
Bit rate mode                            : CBR
00:00:00.000                             : Chapter 1
00:02:01.079                             : Chapter 2
00:03:30.960                             : Chapter 3
00:14:43.382                             : Chapter 4
00:21:50.976                             : Chapter 5
00:23:20.941                             : Chapter 6
00:25:20.936                             : Chapter 7

Other Files in this Torrent
[MystVortex] Maria†Holic - 03 [BD][1080p][AAC][MP4].mp4
beta
Anime DDL+NZB mirror
Current Time: 25/06/2022 05:28



About/FAQs

Discord