MYSTERIA Friends - 10 - The Pair's Promise [Dual Audio] [KiyoshiStar] [1080p 10bit].mkv


File Size621.5 MB (651,707,522 bytes)
DownloadClickNUpload | Jheberg | OpenLoad
MultiUp: Part1
  • BdUpload
  • DownAce
  • Fichier
  • FileCloud
  • Filerio
  • FilesCdn
  • IndiShare
  • Kbagi
  • Solidfiles
  • Turbobit
  • UpToBox
  • Uppit
, Part2
  • BdUpload
  • DownAce
  • Fichier
  • FileCloud
  • Filerio
  • FilesCdn
  • IndiShare
  • Kbagi
  • Solidfiles
  • Turbobit
  • UpToBox
  • Uppit

Sendspace: Part1, Part2, Part3
ZippyShare: Part1, Part2
HashesCRC32: 1F358890, MD5: D862F8F19BA29972676B92C79B32837C, SHA1: 94B7BD41C369E468FC9D8C0FB074578FFFC2058F, SHA256: 319894151F81BF722195BFC3F724CC175FF2CC82ACAE289383EC20F06F5CA779, ED2K: 7A55F7BD406FA1DF6E50CB35A8BA9954
Screenshots
screenshotscreenshotscreenshotscreenshotscreenshot
SubtitlesAll Attachments | Signs & Songs (GJM) [eng, ASS], GJM (No Honorifics) [eng, ASS]
Additional Info
General
Unique ID                                : 269538007013181274021388983961746368004 (0xCAC721C3431D8E3D1B804CB58EAB6604)
Complete name                            : MYSTERIA Friends - 10 - The Pair's Promise [Dual Audio] [KiyoshiStar] [1080p 10bit].mkv
Format                                   : Matroska
Format version                           : Version 4
File size                                : 622 MiB
Duration                                 : 14 min 36 s
Overall bit rate mode                    : Variable
Overall bit rate                         : 5 952 kb/s
Encoded date                             : UTC 2019-04-22 23:31:20
Writing application                      : mkvmerge v33.1.0 ('Primrose') 64-bit
Writing library                          : libebml v1.3.7 + libmatroska v1.5.0
Attachments                              : LLCHARLOTTE.TTF / ALEGREYA-REGULAR.OTF / GANDHISANS-BOLD.OTF / ZCOOLXIAOWEI-REGULAR.TTF

Video
ID                                       : 1
Format                                   : AVC
Format/Info                              : Advanced Video Codec
Format profile                           : High 10@L5.1
Format settings                          : CABAC / 16 Ref Frames
Format settings, CABAC                   : Yes
Format settings, ReFrames                : 16 frames
Codec ID                                 : V_MPEG4/ISO/AVC
Duration                                 : 14 min 36 s
Bit rate                                 : 4 466 kb/s
Width                                    : 1 920 pixels
Height                                   : 1 080 pixels
Display aspect ratio                     : 16:9
Frame rate mode                          : Constant
Frame rate                               : 23.976 (24000/1001) FPS
Color space                              : YUV
Chroma subsampling                       : 4:2:0
Bit depth                                : 10 bits
Scan type                                : Progressive
Bits/(Pixel*Frame)                       : 0.090
Stream size                              : 466 MiB (75%)
Title                                    : Japanese Blu-ray
Writing library                          : x264 core 157 r2935 545de2f
Encoding settings                        : cabac=1 / ref=16 / deblock=1:-2:-2 / analyse=0x3:0x113 / me=umh / subme=10 / psy=1 / psy_rd=0.80:0.00 / mixed_ref=1 / me_range=32 / chroma_me=1 / trellis=2 / 8x8dct=1 / cqm=0 / deadzone=21,11 / fast_pskip=0 / chroma_qp_offset=-2 / threads=12 / lookahead_threads=1 / sliced_threads=0 / nr=0 / decimate=0 / interlaced=0 / bluray_compat=0 / constrained_intra=0 / bframes=16 / b_pyramid=2 / b_adapt=1 / b_bias=0 / direct=3 / weightb=1 / open_gop=0 / weightp=1 / keyint=240 / keyint_min=24 / scenecut=40 / intra_refresh=0 / rc_lookahead=48 / rc=crf / mbtree=1 / crf=14.0 / qcomp=0.60 / qpmin=0 / qpmax=81 / qpstep=4 / ip_ratio=1.40 / aq=3:0.75
Language                                 : Japanese
Default                                  : Yes
Forced                                   : No
Color range                              : Limited
Color primaries                          : BT.709
Transfer characteristics                 : BT.709
Matrix coefficients                      : BT.709

Audio #1
ID                                       : 2
Format                                   : AAC LC
Format/Info                              : Advanced Audio Codec Low Complexity
Codec ID                                 : A_AAC-2
Duration                                 : 14 min 35 s
Bit rate                                 : 159 kb/s
Channel(s)                               : 2 channels
Channel layout                           : L R
Sampling rate                            : 48.0 kHz
Frame rate                               : 46.875 FPS (1024 SPF)
Compression mode                         : Lossy
Stream size                              : 16.6 MiB (3%)
Title                                    : English (HiDive, WEB)
Language                                 : English
Default                                  : Yes
Forced                                   : No

Audio #2
ID                                       : 3
Format                                   : FLAC
Format/Info                              : Free Lossless Audio Codec
Codec ID                                 : A_FLAC
Duration                                 : 14 min 36 s
Bit rate mode                            : Variable
Bit rate                                 : 1 264 kb/s
Channel(s)                               : 2 channels
Channel layout                           : L R
Sampling rate                            : 48.0 kHz
Frame rate                               : 11.719 FPS (4096 SPF)
Bit depth                                : 24 bits
Compression mode                         : Lossless
Stream size                              : 132 MiB (21%)
Title                                    : Japanese (24-bit FLAC)
Language                                 : Japanese
Default                                  : No
Forced                                   : No

Text #1
ID                                       : 4
Format                                   : ASS
Codec ID                                 : S_TEXT/ASS
Codec ID/Info                            : Advanced Sub Station Alpha
Duration                                 : 10 min 27 s
Bit rate                                 : 8 b/s
Count of elements                        : 7
Compression mode                         : Lossless
Stream size                              : 661 Bytes (0%)
Title                                    : Signs & Songs (GJM)
Language                                 : English
Default                                  : Yes
Forced                                   : No

Text #2
ID                                       : 5
Format                                   : ASS
Codec ID                                 : S_TEXT/ASS
Codec ID/Info                            : Advanced Sub Station Alpha
Duration                                 : 14 min 6 s
Bit rate                                 : 98 b/s
Count of elements                        : 167
Compression mode                         : Lossless
Stream size                              : 10.2 KiB (0%)
Title                                    : GJM (No Honorifics)
Language                                 : English
Default                                  : No
Forced                                   : No

Menu
00:00:00.000                             : :Chapter 1
00:09:10.467                             : :Chapter 2
00:11:46.039                             : :Chapter 3

Other Files in this Torrent
MYSTERIA Friends - 10 - The Pair's Promise [Dual Audio] [KiyoshiStar] [1080p 10bit].mkv
beta
Anime DDL+NZB mirror
Current Time: 30/11/2020 04:44



About/FAQs