File Size1.390 GB (1,492,283,975 bytes)
DownloadClickNUpload
DownloadGG: Part1, Part2
KrakenFiles: Part1, Part2
MultiUp: Part1
  • BdUpload
  • DownAce
  • Fichier
  • FileCloud
  • Filerio
  • FilesCdn
  • IndiShare
  • Kbagi
  • Turbobit
  • UpToBox
  • Uppit
, Part2
  • BdUpload
  • DownAce
  • Fichier
  • FileCloud
  • Filerio
  • FilesCdn
  • IndiShare
  • Kbagi
  • Turbobit
  • UpToBox
  • Uppit
, Part3
  • BdUpload
  • DownAce
  • Fichier
  • FileCloud
  • Filerio
  • FilesCdn
  • IndiShare
  • Kbagi
  • Turbobit
  • UpToBox
  • Uppit

ZippyShare: Part1, Part2, Part3
HashesCRC32: 1BE54BC6, MD5: 4B0A70B69B3624C16DB60FFBBC8BB78F, SHA1: 24CEF914433A3CA4EBCEF805ED0ECD2AAB25CF30, SHA256: D6D2D0B28F4CC06AB6B9C8D000042DB264765FCF59E2AB5BF720C43E290DC6C3, ED2K: F90167D2B5E0BD535A93271BDA09CD59
Screenshots
screenshotscreenshotscreenshotscreenshotscreenshot
SubtitlesAll Attachments | Full Subtitles [Crunchyroll] [eng, ASS], Closed Captions [Funimation] [eng, ASS], Signs [Crunchyroll] [eng, ASS]
Additional Info
General
Unique ID                                : 148390358959466691749103119244667102979 (0x6FA2F18E513F5103BD93BBEA6F57A703)
Complete name                            : My.Hero.Academia.S06E14.CR.WEB-DL.1080p.AAC2.0.H.264-Vanilla.mkv
Format                                   : Matroska
Format version                           : Version 4
File size                                : 1.39 GiB
Duration                                 : 23 min 50 s
Overall bit rate                         : 8 348 kb/s
Movie name                               : My Hero Academia - S06E14 - Hellish Hell
Encoded date                             : UTC 2023-01-22 22:31:45
Writing application                      : mkvmerge v73.0.0 ('25 or 6 to 4') 64-bit
Writing library                          : libebml v1.4.4 + libmatroska v1.7.1
Attachments                              : GANDHISANS-REGULAR.OTF / GANDHISANS-BOLD.OTF / GANDHISANS-BOLDITALIC.OTF

Video
ID                                       : 1
Format                                   : AVC
Format/Info                              : Advanced Video Codec
Format profile                           : High@L4
Format settings                          : CABAC / 4 Ref Frames
Format settings, CABAC                   : Yes
Format settings, Reference frames        : 4 frames
Codec ID                                 : V_MPEG4/ISO/AVC
Duration                                 : 23 min 50 s
Bit rate                                 : 8 000 kb/s
Width                                    : 1 920 pixels
Height                                   : 1 080 pixels
Display aspect ratio                     : 16:9
Frame rate mode                          : Constant
Frame rate                               : 23.976 (24000/1001) FPS
Color space                              : YUV
Chroma subsampling                       : 4:2:0
Bit depth                                : 8 bits
Scan type                                : Progressive
Bits/(Pixel*Frame)                       : 0.161
Stream size                              : 1.32 GiB (95%)
Title                                    : Crunchyroll WEB-DL @ 8 Mb/s
Writing library                          : x264 core 142
Encoding settings                        : cabac=1 / ref=4 / deblock=1:1:1 / analyse=0x3:0x113 / me=umh / subme=8 / psy=1 / psy_rd=0.40:0.00 / mixed_ref=1 / me_range=16 / chroma_me=1 / trellis=1 / 8x8dct=1 / cqm=0 / deadzone=21,11 / fast_pskip=1 / chroma_qp_offset=-2 / threads=12 / lookahead_threads=2 / sliced_threads=0 / nr=0 / decimate=1 / interlaced=0 / bluray_compat=0 / constrained_intra=0 / bframes=0 / weightp=2 / keyint=96 / keyint_min=48 / scenecut=40 / intra_refresh=0 / rc_lookahead=48 / rc=2pass / mbtree=1 / bitrate=8000 / ratetol=1.0 / qcomp=0.60 / qpmin=0 / qpmax=69 / qpstep=4 / cplxblur=20.0 / qblur=0.5 / vbv_maxrate=12000 / vbv_bufsize=18000 / nal_hrd=none / filler=0 / ip_ratio=1.40 / aq=1:0.60
Language                                 : Japanese
Default                                  : Yes
Forced                                   : No

Audio #1
ID                                       : 2
Format                                   : AAC LC
Format/Info                              : Advanced Audio Codec Low Complexity
Codec ID                                 : A_AAC-2
Duration                                 : 23 min 50 s
Bit rate                                 : 128 kb/s
Channel(s)                               : 2 channels
Channel layout                           : L R
Sampling rate                            : 44.1 kHz
Frame rate                               : 43.066 FPS (1024 SPF)
Compression mode                         : Lossy
Stream size                              : 21.8 MiB (2%)
Title                                    : AAC LC 2.0 @ 128 kb/s
Language                                 : Japanese
Default                                  : Yes
Forced                                   : No

Audio #2
ID                                       : 3
Format                                   : AAC LC
Format/Info                              : Advanced Audio Codec Low Complexity
Codec ID                                 : A_AAC-2
Duration                                 : 23 min 50 s
Bit rate                                 : 256 kb/s
Channel(s)                               : 2 channels
Channel layout                           : L R
Sampling rate                            : 48.0 kHz
Frame rate                               : 46.875 FPS (1024 SPF)
Compression mode                         : Lossy
Stream size                              : 43.6 MiB (3%)
Title                                    : AAC LC 2.0 @ 256 kb/s
Language                                 : English
Default                                  : No
Forced                                   : No

Text #1
ID                                       : 4
Format                                   : ASS
Codec ID                                 : S_TEXT/ASS
Codec ID/Info                            : Advanced Sub Station Alpha
Duration                                 : 23 min 45 s
Bit rate                                 : 114 b/s
Count of elements                        : 339
Compression mode                         : Lossless
Stream size                              : 19.9 KiB (0%)
Title                                    : Full Subtitles [Crunchyroll]
Language                                 : English
Default                                  : Yes
Forced                                   : No

Text #2
ID                                       : 5
Format                                   : ASS
Codec ID                                 : S_TEXT/ASS
Codec ID/Info                            : Advanced Sub Station Alpha
Duration                                 : 23 min 45 s
Bit rate                                 : 139 b/s
Count of elements                        : 415
Compression mode                         : Lossless
Stream size                              : 24.3 KiB (0%)
Title                                    : Closed Captions [Funimation]
Language                                 : English
Default                                  : No
Forced                                   : No

Text #3
ID                                       : 6
Format                                   : ASS
Codec ID                                 : S_TEXT/ASS
Codec ID/Info                            : Advanced Sub Station Alpha
Duration                                 : 23 min 7 s
Bit rate                                 : 3 b/s
Count of elements                        : 15
Compression mode                         : Lossless
Stream size                              : 683 Bytes (0%)
Title                                    : Signs [Crunchyroll]
Language                                 : English
Default                                  : No
Forced                                   : Yes
beta
Anime DDL+NZB mirror
Current Time: 17/04/2024 02:55



About/FAQs

Discord