File Size580.7 MB (608,959,346 bytes)
DownloadAnonFiles | ClickNUpload | DropAPK | Free
MultiUp: Part1
  • BdUpload
  • DownAce
  • Fichier
  • FileCloud
  • Filerio
  • FilesCdn
  • IndiShare
  • Kbagi
  • Turbobit
  • UpToBox
  • Uppit
, Part2
  • BdUpload
  • DownAce
  • Fichier
  • FileCloud
  • Filerio
  • FilesCdn
  • IndiShare
  • Kbagi
  • Turbobit
  • UpToBox
  • Uppit

Sendspace: Part1, Part2
ZippyShare: Part1, Part2
HashesCRC32: D4310775, MD5: CC5D58820FBEF679BAF80637C8AC4C9D, SHA1: 4F13068F347DB3931CA821F60D4F8D6610A044B0, SHA256: BBC4BBA7164DD5ED72CA831CD642B0CF78153F175CCB990954619540471FE507, ED2K: 644F4F90BE943F6D77476F6549646907
Screenshots
screenshotscreenshotscreenshotscreenshotscreenshot
SubtitlesAll Attachments | eng [SRT]
Additional Info
General
Unique ID                                : 230127011618204893496446574413339302913 (0xAD20D9AB371070B7C51BE0291ABE1C01)
Complete name                            : My.Hero.Academia.S04E04.Fighting.Fate.1080p.WEB-DL.DDP5.1.H.264-aKraa.mkv
Format                                   : Matroska
Format version                           : Version 4
File size                                : 581 MiB
Duration                                 : 24 min 6 s
Overall bit rate                         : 3 367 kb/s
Encoded date                             : UTC 2020-09-11 12:18:01
Writing application                      : mkvmerge v49.0.0 ('Sick Of Losing Soulmates') 64-bit
Writing library                          : libebml v1.4.0 + libmatroska v1.6.1 / Lavf58.29.100

Video
ID                                       : 1
Format                                   : AVC
Format/Info                              : Advanced Video Codec
Format profile                           : High@L4
Format settings                          : CABAC / 4 Ref Frames
Format settings, CABAC                   : Yes
Format settings, ReFrames                : 4 frames
Codec ID                                 : V_MPEG4/ISO/AVC
Duration                                 : 24 min 6 s
Bit rate                                 : 3 110 kb/s
Width                                    : 1 920 pixels
Height                                   : 1 080 pixels
Display aspect ratio                     : 16:9
Frame rate mode                          : Constant
Frame rate                               : 23.976 (24000/1001) FPS
Color space                              : YUV
Chroma subsampling                       : 4:2:0
Bit depth                                : 8 bits
Scan type                                : Progressive
Bits/(Pixel*Frame)                       : 0.063
Stream size                              : 536 MiB (92%)
Default                                  : Yes
Forced                                   : No

Audio
ID                                       : 2
Format                                   : E-AC-3
Format/Info                              : Enhanced AC-3
Commercial name                          : Dolby Digital Plus
Codec ID                                 : A_EAC3
Duration                                 : 24 min 6 s
Bit rate mode                            : Constant
Bit rate                                 : 256 kb/s
Channel(s)                               : 6 channels
Channel layout                           : L R C LFE Ls Rs
Sampling rate                            : 48.0 kHz
Frame rate                               : 31.250 FPS (1536 SPF)
Compression mode                         : Lossy
Stream size                              : 44.1 MiB (8%)
Language                                 : English
Service kind                             : Complete Main
Default                                  : Yes
Forced                                   : No

Text
ID                                       : 3
Format                                   : UTF-8
Codec ID                                 : S_TEXT/UTF8
Codec ID/Info                            : UTF-8 Plain Text
Duration                                 : 23 min 54 s
Bit rate                                 : 91 b/s
Count of elements                        : 450
Stream size                              : 16.1 KiB (0%)
Language                                 : English
Default                                  : Yes
Forced                                   : No

Other Files in this Torrent
My.Hero.Academia.S04E04.Fighting.Fate.1080p.WEB-DL.DDP5.1.H.264-aKraa.mkv
beta
Anime DDL+NZB mirror
Current Time: 26/05/2022 15:23



About/FAQs

Discord