File Size257.1 MB (269,603,603 bytes)
DownloadAnonFiles | ClickNUpload | DropAPK | MultiUp
  • BdUpload
  • DownAce
  • Fichier
  • FileCloud
  • Filerio
  • FilesCdn
  • IndiShare
  • Kbagi
  • Turbobit
  • UpToBox
  • Uppit
| SolidFiles | ZippyShare
HashesCRC32: F7AEF248, MD5: E29561ADB309523CDF1E47467EABF2FA, SHA1: C4420029803490D8D5A91F5309F23F0D7C2F551A, SHA256: 6C2D91576F1A5579B6B175D9F948BDD039A77D830CBD8773F7E6874665FE87C9, ED2K: 94523F362841B49E8EF0F584741DD89D
Screenshots
screenshotscreenshotscreenshotscreenshotscreenshot
SubtitlesAll Attachments | English [eng, SRT], Thai [tha, SRT], Malay [may, SRT], Indonesian [ind, SRT], Chinese (traditional) [chi, SRT], Chinese (simplified) [chi, SRT], Vietnamese [vie, SRT]
Additional Info
General
Unique ID                                : 6954738288368141717803784535448763360 (0x53B6F12448E5ACD1EDBBDFB20943BE0)
Complete name                            : [Muse] Zombie Land Saga Revenge - 10 [1080p](Multiple Subtitle).mkv
Format                                   : Matroska
Format version                           : Version 4
File size                                : 257 MiB
Duration                                 : 23 min 40 s
Overall bit rate                         : 1 519 kb/s
Encoded date                             : UTC 2021-06-10 15:34:23
Writing application                      : mkvmerge v51.0.0 ('I Wish') 64-bit
Writing library                          : libebml v1.4.0 + libmatroska v1.6.2

Video
ID                                       : 1
Format                                   : AVC
Format/Info                              : Advanced Video Codec
Format profile                           : High@L4
Format settings                          : CABAC / 3 Ref Frames
Format settings, CABAC                   : Yes
Format settings, ReFrames                : 3 frames
Codec ID                                 : V_MPEG4/ISO/AVC
Duration                                 : 23 min 40 s
Bit rate                                 : 1 326 kb/s
Width                                    : 1 920 pixels
Height                                   : 1 080 pixels
Display aspect ratio                     : 16:9
Frame rate mode                          : Constant
Frame rate                               : 23.976 (24000/1001) FPS
Color space                              : YUV
Chroma subsampling                       : 4:2:0
Bit depth                                : 8 bits
Scan type                                : Progressive
Bits/(Pixel*Frame)                       : 0.027
Stream size                              : 224 MiB (87%)
Writing library                          : qiyi.com vtc-test
Default                                  : Yes
Forced                                   : No
Color range                              : Limited
Color primaries                          : BT.709
Transfer characteristics                 : BT.709
Matrix coefficients                      : BT.709

Audio
ID                                       : 2
Format                                   : AAC LC
Format/Info                              : Advanced Audio Codec Low Complexity
Codec ID                                 : A_AAC-2
Duration                                 : 23 min 40 s
Bit rate                                 : 192 kb/s
Channel(s)                               : 2 channels
Channel layout                           : L R
Sampling rate                            : 44.1 kHz
Frame rate                               : 43.066 FPS (1024 SPF)
Compression mode                         : Lossy
Stream size                              : 32.1 MiB (12%)
Language                                 : Japanese
Default                                  : Yes
Forced                                   : No

Text #1
ID                                       : 3
Format                                   : UTF-8
Codec ID                                 : S_TEXT/UTF8
Codec ID/Info                            : UTF-8 Plain Text
Duration                                 : 23 min 38 s
Bit rate                                 : 84 b/s
Count of elements                        : 396
Stream size                              : 14.7 KiB (0%)
Title                                    : English
Language                                 : English
Default                                  : Yes
Forced                                   : No

Text #2
ID                                       : 4
Format                                   : UTF-8
Codec ID                                 : S_TEXT/UTF8
Codec ID/Info                            : UTF-8 Plain Text
Duration                                 : 23 min 38 s
Bit rate                                 : 236 b/s
Count of elements                        : 405
Stream size                              : 40.9 KiB (0%)
Title                                    : Thai
Language                                 : Thai
Default                                  : No
Forced                                   : No

Text #3
ID                                       : 5
Format                                   : UTF-8
Codec ID                                 : S_TEXT/UTF8
Codec ID/Info                            : UTF-8 Plain Text
Duration                                 : 23 min 39 s
Bit rate                                 : 100 b/s
Count of elements                        : 484
Stream size                              : 17.4 KiB (0%)
Title                                    : Malay
Language                                 : Malay
Default                                  : No
Forced                                   : No

Text #4
ID                                       : 6
Format                                   : UTF-8
Codec ID                                 : S_TEXT/UTF8
Codec ID/Info                            : UTF-8 Plain Text
Duration                                 : 23 min 39 s
Bit rate                                 : 79 b/s
Count of elements                        : 386
Stream size                              : 13.8 KiB (0%)
Title                                    : Indonesian
Language                                 : Indonesian
Default                                  : No
Forced                                   : No

Text #5
ID                                       : 7
Format                                   : UTF-8
Codec ID                                 : S_TEXT/UTF8
Codec ID/Info                            : UTF-8 Plain Text
Duration                                 : 23 min 38 s
Bit rate                                 : 76 b/s
Count of elements                        : 487
Stream size                              : 13.2 KiB (0%)
Title                                    : Chinese (traditional)
Language                                 : Chinese
Default                                  : No
Forced                                   : No

Text #6
ID                                       : 8
Format                                   : UTF-8
Codec ID                                 : S_TEXT/UTF8
Codec ID/Info                            : UTF-8 Plain Text
Duration                                 : 23 min 38 s
Bit rate                                 : 76 b/s
Count of elements                        : 487
Stream size                              : 13.2 KiB (0%)
Title                                    : Chinese (simplified)
Language                                 : Chinese
Default                                  : No
Forced                                   : No

Text #7
ID                                       : 9
Format                                   : UTF-8
Codec ID                                 : S_TEXT/UTF8
Codec ID/Info                            : UTF-8 Plain Text
Duration                                 : 23 min 39 s
Bit rate                                 : 119 b/s
Count of elements                        : 426
Stream size                              : 20.7 KiB (0%)
Title                                    : Vietnamese
Language                                 : Vietnamese
Default                                  : No
Forced                                   : No
beta
Anime DDL+NZB mirror
Current Time: 24/09/2021 08:20



About/FAQs