File Size232.9 MB (244,210,191 bytes)
DownloadAnonFiles | ClickNUpload | DropAPK | Free | MultiUp
  • BdUpload
  • DownAce
  • Fichier
  • FileCloud
  • Filerio
  • FilesCdn
  • IndiShare
  • Kbagi
  • Turbobit
  • UpToBox
  • Uppit
| Sendspace | ZippyShare
HashesCRC32: 4778076B, MD5: 16D5650146FD205B77966648A77811AC, SHA1: CD0BDB0A1EB2DED91E7CF8F58CC4C41EABA48229, SHA256: F6F1975B731D365B79DB76F2DB0D290E42EC0783661CED80B33670EF44B55F84, ED2K: 849DFB80B345994F7DAEE8E2EE037239
Screenshots
screenshotscreenshotscreenshotscreenshotscreenshot
Additional Info
General
Complete name                            : [Muse] Majo no Tabitabi - 04 [720p].mp4
Format                                   : MPEG-4
Format profile                           : Base Media / Version 2
Codec ID                                 : mp42 (isom/mp42)
File size                                : 233 MiB
Duration                                 : 24 min 0 s
Overall bit rate mode                    : Variable
Overall bit rate                         : 1 357 kb/s
Encoded date                             : UTC 2020-10-23 11:11:25
Tagged date                              : UTC 2020-10-23 11:11:25
gsst                                     : 0
gstd                                     : 1440101

Video
ID                                       : 1
Format                                   : AVC
Format/Info                              : Advanced Video Codec
Format profile                           : High@L3.1
Format settings                          : CABAC / 3 Ref Frames
Format settings, CABAC                   : Yes
Format settings, ReFrames                : 3 frames
Codec ID                                 : avc1
Codec ID/Info                            : Advanced Video Coding
Duration                                 : 24 min 0 s
Bit rate                                 : 1 226 kb/s
Width                                    : 1 280 pixels
Height                                   : 720 pixels
Display aspect ratio                     : 16:9
Frame rate mode                          : Constant
Frame rate                               : 23.976 (24000/1001) FPS
Color space                              : YUV
Chroma subsampling                       : 4:2:0
Bit depth                                : 8 bits
Scan type                                : Progressive
Bits/(Pixel*Frame)                       : 0.055
Stream size                              : 210 MiB (90%)
Title                                    : ISO Media file produced by Google Inc. Created on: 10/23/2020.
Encoded date                             : UTC 2020-10-23 11:11:25
Tagged date                              : UTC 2020-10-23 11:11:25
Color range                              : Limited
Color primaries                          : BT.709
Transfer characteristics                 : BT.709
Matrix coefficients                      : BT.709
Codec configuration box                  : avcC

Audio
ID                                       : 2
Format                                   : AAC LC
Format/Info                              : Advanced Audio Codec Low Complexity
Codec ID                                 : mp4a-40-2
Duration                                 : 24 min 0 s
Bit rate mode                            : Variable
Bit rate                                 : 128 kb/s
Channel(s)                               : 2 channels
Channel layout                           : L R
Sampling rate                            : 44.1 kHz
Frame rate                               : 43.066 FPS (1024 SPF)
Compression mode                         : Lossy
Stream size                              : 22.0 MiB (9%)
Title                                    : ISO Media file produced by Google Inc. Created on: 10/23/2020.
Language                                 : English
Encoded date                             : UTC 2020-10-23 11:11:25
Tagged date                              : UTC 2020-10-23 11:11:25
beta
Anime DDL+NZB mirror
Current Time: 22/01/2021 12:10



About/FAQs