File Size197.4 MB (206,970,509 bytes)
DownloadAnonFiles | ClickNUpload | DropAPK | Free | MultiUp
  • BdUpload
  • DownAce
  • Fichier
  • FileCloud
  • Filerio
  • FilesCdn
  • IndiShare
  • Kbagi
  • Turbobit
  • UpToBox
  • Uppit
| Sendspace | SolidFiles | ZippyShare
HashesCRC32: CA14DB82, MD5: EA69895863660D667849B0C0BA956E66, SHA1: 7DA6C20D31C210A7A63B1CACFCC7F1D33C7D61E9, SHA256: 5E06A4EF9FDA521B0935FBC2F4EFC47F22EFDC32FE6DEB7E74E9CD6E8D23E9D4, ED2K: 54A54F4EA17D7E9D4BDDFF955A482BC9
Screenshots
screenshotscreenshotscreenshotscreenshotscreenshot
Additional Info
General
Complete name                            : [Muse] Lapis ReLights - 05 [720p].mp4
Format                                   : MPEG-4
Format profile                           : Base Media / Version 2
Codec ID                                 : mp42 (isom/mp42)
File size                                : 197 MiB
Duration                                 : 23 min 50 s
Overall bit rate mode                    : Variable
Overall bit rate                         : 1 158 kb/s
Encoded date                             : UTC 2020-08-01 12:56:14
Tagged date                              : UTC 2020-08-01 12:56:14
gsst                                     : 0
gstd                                     : 1430117

Video
ID                                       : 1
Format                                   : AVC
Format/Info                              : Advanced Video Codec
Format profile                           : High@L3.1
Format settings                          : CABAC / 3 Ref Frames
Format settings, CABAC                   : Yes
Format settings, ReFrames                : 3 frames
Codec ID                                 : avc1
Codec ID/Info                            : Advanced Video Coding
Duration                                 : 23 min 50 s
Bit rate                                 : 1 027 kb/s
Width                                    : 1 280 pixels
Height                                   : 720 pixels
Display aspect ratio                     : 16:9
Frame rate mode                          : Constant
Frame rate                               : 23.976 (24000/1001) FPS
Color space                              : YUV
Chroma subsampling                       : 4:2:0
Bit depth                                : 8 bits
Scan type                                : Progressive
Bits/(Pixel*Frame)                       : 0.046
Stream size                              : 175 MiB (89%)
Title                                    : ISO Media file produced by Google Inc. Created on: 08/01/2020.
Encoded date                             : UTC 2020-08-01 12:56:14
Tagged date                              : UTC 2020-08-01 12:56:14
Color range                              : Limited
Color primaries                          : BT.709
Transfer characteristics                 : BT.709
Matrix coefficients                      : BT.709
Codec configuration box                  : avcC

Audio
ID                                       : 2
Format                                   : AAC LC
Format/Info                              : Advanced Audio Codec Low Complexity
Codec ID                                 : mp4a-40-2
Duration                                 : 23 min 50 s
Bit rate mode                            : Variable
Bit rate                                 : 128 kb/s
Channel(s)                               : 2 channels
Channel layout                           : L R
Sampling rate                            : 44.1 kHz
Frame rate                               : 43.066 FPS (1024 SPF)
Compression mode                         : Lossy
Stream size                              : 21.8 MiB (11%)
Title                                    : ISO Media file produced by Google Inc. Created on: 08/01/2020.
Language                                 : English
Encoded date                             : UTC 2020-08-01 12:56:14
Tagged date                              : UTC 2020-08-01 12:56:14
beta
Anime DDL+NZB mirror
Current Time: 21/09/2020 16:46



About/FAQs