File Size199.4 MB (209,057,684 bytes)
DownloadAnonFiles | ClickNUpload | DropAPK | Free | MultiUp
  • BdUpload
  • DownAce
  • Fichier
  • FileCloud
  • Filerio
  • FilesCdn
  • IndiShare
  • Kbagi
  • Turbobit
  • UpToBox
  • Uppit
| Sendspace | ZippyShare
HashesCRC32: BE9E6E83, MD5: 11B49E51069959EA78AADDD08084773F, SHA1: BC89399928FD7F54BDD45878E02F52F94BCA7CD9, SHA256: 05B6F40F2D76A1673D9712816F45703872839156D3555064BBCBAAAAE9502632, ED2K: 0288AEE003362813BF04D9A287CFB604
Screenshots
screenshotscreenshotscreenshotscreenshotscreenshot
Additional Info
General
Complete name                            : [Muse] Houkago Teibou Nisshi - 11 [720p].mp4
Format                                   : MPEG-4
Format profile                           : Base Media / Version 2
Codec ID                                 : mp42 (isom/mp42)
File size                                : 199 MiB
Duration                                 : 23 min 39 s
Overall bit rate mode                    : Variable
Overall bit rate                         : 1 178 kb/s
Encoded date                             : UTC 2020-09-15 10:01:28
Tagged date                              : UTC 2020-09-15 10:01:28
gsst                                     : 0
gstd                                     : 1420016

Video
ID                                       : 1
Format                                   : AVC
Format/Info                              : Advanced Video Codec
Format profile                           : High@L3.1
Format settings                          : CABAC / 3 Ref Frames
Format settings, CABAC                   : Yes
Format settings, ReFrames                : 3 frames
Codec ID                                 : avc1
Codec ID/Info                            : Advanced Video Coding
Duration                                 : 23 min 39 s
Bit rate                                 : 1 047 kb/s
Width                                    : 1 280 pixels
Height                                   : 720 pixels
Display aspect ratio                     : 16:9
Frame rate mode                          : Constant
Frame rate                               : 23.976 (24000/1001) FPS
Color space                              : YUV
Chroma subsampling                       : 4:2:0
Bit depth                                : 8 bits
Scan type                                : Progressive
Bits/(Pixel*Frame)                       : 0.047
Stream size                              : 177 MiB (89%)
Title                                    : ISO Media file produced by Google Inc. Created on: 09/15/2020.
Encoded date                             : UTC 2020-09-15 10:01:28
Tagged date                              : UTC 2020-09-15 10:01:28
Color range                              : Limited
Color primaries                          : BT.709
Transfer characteristics                 : BT.709
Matrix coefficients                      : BT.709
Codec configuration box                  : avcC

Audio
ID                                       : 2
Format                                   : AAC LC
Format/Info                              : Advanced Audio Codec Low Complexity
Codec ID                                 : mp4a-40-2
Duration                                 : 23 min 39 s
Bit rate mode                            : Variable
Bit rate                                 : 128 kb/s
Channel(s)                               : 2 channels
Channel layout                           : L R
Sampling rate                            : 44.1 kHz
Frame rate                               : 43.066 FPS (1024 SPF)
Compression mode                         : Lossy
Stream size                              : 21.7 MiB (11%)
Title                                    : ISO Media file produced by Google Inc. Created on: 09/15/2020.
Language                                 : English
Encoded date                             : UTC 2020-09-15 10:01:28
Tagged date                              : UTC 2020-09-15 10:01:28
beta
Anime DDL+NZB mirror
Current Time: 23/10/2020 08:36



About/FAQs