File Size204.2 MB (214,129,559 bytes)
DownloadAnonFiles | ClickNUpload | DropAPK | Free | MultiUp
  • BdUpload
  • DownAce
  • Fichier
  • FileCloud
  • Filerio
  • FilesCdn
  • IndiShare
  • Kbagi
  • Turbobit
  • UpToBox
  • Uppit
| Sendspace | SolidFiles | ZippyShare
HashesCRC32: 8B54E595, MD5: 586A556058387F15ABFCD571BF7B9880, SHA1: 88FF918DACEE548173610F020AFEA212FFE54BCD, SHA256: AA8339B9C0DE42006D5718D8FFF69A9887A49D39C83D2B528B8D92FF52525278, ED2K: 3F71740143329A8F5321BE4594F98C01
Screenshots
screenshotscreenshotscreenshotscreenshotscreenshot
Additional Info
General
Complete name                            : [Muse] Houkago Teibou Nisshi - 09 [720p].mp4
Format                                   : MPEG-4
Format profile                           : Base Media / Version 2
Codec ID                                 : mp42 (isom/mp42)
File size                                : 204 MiB
Duration                                 : 23 min 40 s
Overall bit rate mode                    : Variable
Overall bit rate                         : 1 206 kb/s
Encoded date                             : UTC 2020-09-01 07:49:44
Tagged date                              : UTC 2020-09-01 07:49:44
gsst                                     : 0
gstd                                     : 1420225

Video
ID                                       : 1
Format                                   : AVC
Format/Info                              : Advanced Video Codec
Format profile                           : High@L3.1
Format settings                          : CABAC / 3 Ref Frames
Format settings, CABAC                   : Yes
Format settings, ReFrames                : 3 frames
Codec ID                                 : avc1
Codec ID/Info                            : Advanced Video Coding
Duration                                 : 23 min 40 s
Bit rate                                 : 1 075 kb/s
Width                                    : 1 280 pixels
Height                                   : 720 pixels
Display aspect ratio                     : 16:9
Frame rate mode                          : Constant
Frame rate                               : 23.976 (24000/1001) FPS
Color space                              : YUV
Chroma subsampling                       : 4:2:0
Bit depth                                : 8 bits
Scan type                                : Progressive
Bits/(Pixel*Frame)                       : 0.049
Stream size                              : 182 MiB (89%)
Title                                    : ISO Media file produced by Google Inc. Created on: 09/01/2020.
Encoded date                             : UTC 2020-09-01 07:49:44
Tagged date                              : UTC 2020-09-01 07:49:44
Color range                              : Limited
Color primaries                          : BT.709
Transfer characteristics                 : BT.709
Matrix coefficients                      : BT.709
Codec configuration box                  : avcC

Audio
ID                                       : 2
Format                                   : AAC LC
Format/Info                              : Advanced Audio Codec Low Complexity
Codec ID                                 : mp4a-40-2
Duration                                 : 23 min 40 s
Bit rate mode                            : Variable
Bit rate                                 : 128 kb/s
Channel(s)                               : 2 channels
Channel layout                           : L R
Sampling rate                            : 44.1 kHz
Frame rate                               : 43.066 FPS (1024 SPF)
Compression mode                         : Lossy
Stream size                              : 21.7 MiB (11%)
Title                                    : ISO Media file produced by Google Inc. Created on: 09/01/2020.
Language                                 : English
Encoded date                             : UTC 2020-09-01 07:49:44
Tagged date                              : UTC 2020-09-01 07:49:44
beta
Anime DDL+NZB mirror
Current Time: 26/01/2022 08:18



About/FAQs

Discord