File Size978.1 MB (1,025,596,297 bytes)
DownloadAnonFiles | ClickNUpload | DropAPK | Free
MultiUp: Part1
  • BdUpload
  • DownAce
  • Fichier
  • FileCloud
  • Filerio
  • FilesCdn
  • IndiShare
  • Kbagi
  • Turbobit
  • UpToBox
  • Uppit
, Part2
  • BdUpload
  • DownAce
  • Fichier
  • FileCloud
  • Filerio
  • FilesCdn
  • IndiShare
  • Kbagi
  • Turbobit
  • UpToBox
  • Uppit

SolidFiles: Part1, Part2
ZippyShare: Part1, Part2
HashesCRC32: 5C760F75, MD5: DD6C7694424AF18741912E4BEEA22B3C, SHA1: B375AB70C6F5F6043573996E2811C66FF78156DE, SHA256: 471B08D584F993D63554ACE80177D37CFFB9DBA08F17AE0127ACF0E4FC212D2E, ED2K: FD5FBEE0DF2BEA29AC95C658D27E72B6
Screenshots
screenshotscreenshotscreenshotscreenshotscreenshot
SubtitlesAll Attachments | eng [ASS], Honorifics [enm, ASS]
Additional Info
General
Unique ID                                : 177081988529336029725098630184615627546 (0x8538C01C503C65BBFB9F73DC5C794B1A)
Complete name                            : [MTBB] Sword Art Onlineː Alicization - War of Underworld - 15 [5C760F75].mkv
Format                                   : Matroska
Format version                           : Version 4
File size                                : 978 MiB
Duration                                 : 23 min 41 s
Overall bit rate                         : 5 770 kb/s
Encoded date                             : UTC 2020-11-22 18:02:07
Writing application                      : mkvmerge v19.0.0 ('Brave Captain') 64-bit
Writing library                          : libebml v1.3.5 + libmatroska v1.4.8
Attachments                              : BELLGOTHIC-BOLD.TTF / FUTURA.OTF / GandhiSans-BoldItalic_1.otf / GandhiSans-Bold_1.otf / OPTIMALTSTD-BOLD.OTF / QUADRAAT-BOLD.OTF / TRIGGERING-FANFARES.TTF

Video
ID                                       : 1
Format                                   : AVC
Format/Info                              : Advanced Video Codec
Format profile                           : High 10@L5.1
Format settings                          : CABAC / 16 Ref Frames
Format settings, CABAC                   : Yes
Format settings, ReFrames                : 16 frames
Codec ID                                 : V_MPEG4/ISO/AVC
Duration                                 : 23 min 39 s
Bit rate                                 : 5 480 kb/s
Width                                    : 1 920 pixels
Height                                   : 1 080 pixels
Display aspect ratio                     : 16:9
Frame rate mode                          : Constant
Frame rate                               : 23.976 (24000/1001) FPS
Color space                              : YUV
Chroma subsampling                       : 4:2:0
Bit depth                                : 10 bits
Scan type                                : Progressive
Bits/(Pixel*Frame)                       : 0.110
Stream size                              : 928 MiB (95%)
Writing library                          : x264 core 152 r2851 ba24899
Encoding settings                        : cabac=1 / ref=16 / deblock=1:0:0 / analyse=0x3:0x133 / me=umh / subme=10 / psy=1 / psy_rd=1.00:0.00 / mixed_ref=1 / me_range=24 / chroma_me=1 / trellis=2 / 8x8dct=1 / cqm=0 / deadzone=21,11 / fast_pskip=1 / chroma_qp_offset=-2 / threads=6 / lookahead_threads=1 / sliced_threads=0 / nr=0 / decimate=1 / interlaced=0 / bluray_compat=0 / constrained_intra=0 / bframes=8 / b_pyramid=2 / b_adapt=2 / b_bias=0 / direct=3 / weightb=1 / open_gop=0 / weightp=2 / keyint=250 / keyint_min=23 / scenecut=40 / intra_refresh=0 / rc_lookahead=60 / rc=crf / mbtree=1 / crf=16.0 / qcomp=0.60 / qpmin=0 / qpmax=81 / qpstep=4 / ip_ratio=1.40 / aq=1:1.00
Default                                  : Yes
Forced                                   : No
Color range                              : Limited
Matrix coefficients                      : BT.709

Audio
ID                                       : 2
Format                                   : AAC LC
Format/Info                              : Advanced Audio Codec Low Complexity
Codec ID                                 : A_AAC-2
Duration                                 : 23 min 41 s
Bit rate                                 : 265 kb/s
Channel(s)                               : 2 channels
Channel layout                           : L R
Sampling rate                            : 48.0 kHz
Frame rate                               : 46.875 FPS (1024 SPF)
Compression mode                         : Lossy
Stream size                              : 44.9 MiB (5%)
Language                                 : Japanese
Default                                  : Yes
Forced                                   : No

Text #1
ID                                       : 3
Format                                   : ASS
Codec ID                                 : S_TEXT/ASS
Codec ID/Info                            : Advanced Sub Station Alpha
Duration                                 : 23 min 15 s
Bit rate                                 : 12.5 kb/s
Count of elements                        : 4143
Compression mode                         : Lossless
Stream size                              : 2.09 MiB (0%)
Language                                 : English
Default                                  : Yes
Forced                                   : No

Text #2
ID                                       : 4
Format                                   : ASS
Codec ID                                 : S_TEXT/ASS
Codec ID/Info                            : Advanced Sub Station Alpha
Duration                                 : 23 min 15 s
Bit rate                                 : 12.5 kb/s
Count of elements                        : 4143
Compression mode                         : Lossless
Stream size                              : 2.08 MiB (0%)
Title                                    : Honorifics
Language                                 : enm
Default                                  : No
Forced                                   : No

Menu
00:00:00.033                             : en:Intro
00:05:00.020                             : en:OP
00:06:29.960                             : en:Episode
00:22:04.920                             : en:ED
00:23:34.940                             : en:Preview

Other Files in this Torrent
[MTBB] Sword Art Onlineː Alicization - War of Underworld - 15 [5C760F75].mkv
beta
Anime DDL+NZB mirror
Current Time: 02/12/2021 15:51



About/FAQs

Discord