File Size246.1 MB (258,092,453 bytes)
DownloadClickNUpload | Jheberg | MultiUp
  • BdUpload
  • DownAce
  • Fichier
  • FileCloud
  • Filerio
  • FilesCdn
  • IndiShare
  • Kbagi
  • Solidfiles
  • Turbobit
  • UpToBox
  • Uppit
| OpenLoad | Sendspace | ZippyShare
HashesCRC32: 0B2B6587, MD5: D6EE8D07E3382A45EDDD847A8D689887, SHA1: AE5C1EA5293C3390C992CDA802159EA33DF1F007, SHA256: DDDEDC7EC22A3BD3AC22EEEDF4DB777ECDFA2EFD418CC2DCA43FF3B2F45B60BE, ED2K: B4D858E50D941C7FCDF81182076292B0
Screenshots
screenshotscreenshotscreenshotscreenshotscreenshot
SubtitlesAll Attachments | eng [ASS], Honorifics [enm, ASS]
Additional Info
General
Unique ID                                : 190991853449792693916374047340217019939 (0x8FAFB1666F959CCA26E926A3D3C0AE23)
Complete name                            : [MTBB] Spice and Wolf II - 00 [0B2B6587].mkv
Format                                   : Matroska
Format version                           : Version 4
File size                                : 246 MiB
Duration                                 : 23 min 51 s
Overall bit rate                         : 1 443 kb/s
Encoded date                             : UTC 2019-05-27 00:42:45
Writing application                      : mkvmerge v19.0.0 ('Brave Captain') 64-bit
Writing library                          : libebml v1.3.5 + libmatroska v1.4.8
Attachments                              : BodoniStd.otf / GandhiSans-Bold.otf / GandhiSans-BoldItalic.otf / MAILARTRUBBERSTAMP-REGULAR.OTF

Video
ID                                       : 1
Format                                   : AVC
Format/Info                              : Advanced Video Codec
Format profile                           : High 4:4:4 Predictive@L5
Format settings                          : CABAC / 16 Ref Frames
Format settings, CABAC                   : Yes
Format settings, ReFrames                : 16 frames
Codec ID                                 : V_MPEG4/ISO/AVC
Duration                                 : 23 min 50 s
Bit rate                                 : 1 132 kb/s
Width                                    : 1 280 pixels
Height                                   : 720 pixels
Display aspect ratio                     : 16:9
Frame rate mode                          : Constant
Frame rate                               : 23.976 (24000/1001) FPS
Color space                              : YUV
Chroma subsampling                       : 4:4:4
Bit depth                                : 10 bits
Scan type                                : Progressive
Bits/(Pixel*Frame)                       : 0.051
Stream size                              : 193 MiB (78%)
Writing library                          : x264 core 152 r2851 ba24899
Encoding settings                        : cabac=1 / ref=16 / deblock=1:0:0 / analyse=0x1:0x131 / me=umh / subme=10 / psy=1 / psy_rd=1.00:0.00 / mixed_ref=1 / me_range=24 / chroma_me=1 / trellis=2 / 8x8dct=0 / cqm=0 / deadzone=21,11 / fast_pskip=1 / chroma_qp_offset=3 / threads=6 / lookahead_threads=1 / sliced_threads=0 / nr=0 / decimate=1 / interlaced=0 / bluray_compat=0 / constrained_intra=0 / bframes=8 / b_pyramid=2 / b_adapt=2 / b_bias=0 / direct=3 / weightb=1 / open_gop=0 / weightp=2 / keyint=250 / keyint_min=23 / scenecut=40 / intra_refresh=0 / rc_lookahead=60 / rc=crf / mbtree=1 / crf=13.5 / qcomp=0.60 / qpmin=0 / qpmax=81 / qpstep=4 / ip_ratio=1.40 / aq=1:0.60
Default                                  : Yes
Forced                                   : No
Color range                              : Limited
Matrix coefficients                      : BT.709

Audio
ID                                       : 2
Format                                   : AAC LC
Format/Info                              : Advanced Audio Codec Low Complexity
Codec ID                                 : A_AAC-2
Duration                                 : 23 min 51 s
Bit rate                                 : 306 kb/s
Channel(s)                               : 2 channels
Channel layout                           : L R
Sampling rate                            : 48.0 kHz
Frame rate                               : 46.875 FPS (1024 SPF)
Compression mode                         : Lossy
Delay relative to video                  : 20 ms
Stream size                              : 52.2 MiB (21%)
Language                                 : Japanese
Default                                  : Yes
Forced                                   : No

Text #1
ID                                       : 3
Format                                   : ASS
Codec ID                                 : S_TEXT/ASS
Codec ID/Info                            : Advanced Sub Station Alpha
Duration                                 : 21 min 49 s
Bit rate                                 : 170 b/s
Count of elements                        : 413
Compression mode                         : Lossless
Stream size                              : 27.2 KiB (0%)
Language                                 : English
Default                                  : Yes
Forced                                   : No

Text #2
ID                                       : 4
Format                                   : ASS
Codec ID                                 : S_TEXT/ASS
Codec ID/Info                            : Advanced Sub Station Alpha
Duration                                 : 21 min 49 s
Bit rate                                 : 170 b/s
Count of elements                        : 413
Compression mode                         : Lossless
Stream size                              : 27.2 KiB (0%)
Title                                    : Honorifics
Language                                 : enm
Default                                  : No
Forced                                   : No

Menu
00:00:00.033                             : en:Episode
00:22:10.030                             : en:ED
00:23:40.080                             : en:Preview
beta
Anime DDL+NZB mirror
Current Time: 18/11/2019 19:33



About/FAQs