[MTBB] Legend of the Galactic Heroes 001 - In the Eternal Night.mkv


File Size367.2 MB (385,041,446 bytes)
DownloadClickNUpload | Go4Up | Jheberg | MultiUp
  • ClickNupload
  • Fichier
  • Filerio
  • Free
  • Fufox
  • HugeFiles
  • Mightyupload
  • ToutBox
  • Turbobit
  • UpToBox
  • Uplea
  • UploadBaz
  • Uploadable
  • Uploaded
  • Uppit
  • Userscloud
| OpenLoad | SolidFiles
Sendspace: Part1, Part2
Encrypted DownloadDirect
Password:
HashesCRC32: B79CAE82, MD5: 9324A853F1D295B189BFD82C72995EA2, SHA1: E3460E93E4B5C01F481DA7F665BF4FDCB11D59AF, SHA256: 634B903A47F8847CE9BFECB0BE9B7C971339585D2666632784454850E1F69E51, ED2K: BBB650858C82BDCCC6595A539994FD2F
Screenshots
screenshotscreenshotscreenshotscreenshotscreenshot
SubtitlesAll Attachments | und [ASS]
Additional Info
General
Unique ID                                : 242809751469759142021037934462203573045 (0xB6AB7505746BC764BE7BABB89757B335)
Complete name                            : [MTBB] Legend of the Galactic Heroes 001 - In the Eternal Night.mkv
Format                                   : Matroska
Format version                           : Version 4 / Version 2
File size                                : 367 MiB
Duration                                 : 24 min 5 s
Overall bit rate                         : 2 132 kb/s
Movie name                               : Legend of Galactic Heroes EP 001
Encoded date                             : UTC 2017-07-08 06:13:17
Writing application                      : mkvmerge v8.4.0 ('A better way to fly') 32bit
Writing library                          : libebml v1.3.1 + libmatroska v1.4.2
Attachments                              : GandhiSans-Bold_0.otf / GandhiSans-BoldItalic_0.otf / Quadraat-Bold.otf / Crap-AOSL (phone-tall).otf

Video
ID                                       : 1
Format                                   : AVC
Format/Info                              : Advanced Video Codec
Format profile                           : High 10@L4
Format settings, CABAC                   : Yes
Format settings, ReFrames                : 9 frames
Codec ID                                 : V_MPEG4/ISO/AVC
Duration                                 : 24 min 4 s
Bit rate                                 : 1 804 kb/s
Width                                    : 960 pixels
Height                                   : 720 pixels
Display aspect ratio                     : 4:3
Frame rate mode                          : Variable
Frame rate                               : 24.236 FPS
Color space                              : YUV
Chroma subsampling                       : 4:2:0
Bit depth                                : 10 bits
Scan type                                : Progressive
Bits/(Pixel*Frame)                       : 0.108
Stream size                              : 311 MiB (85%)
Title                                    : 720p, 10bit
Writing library                          : x264 core 116 r2074+602_tMod-10bit adfbfd5
Encoding settings                        : cabac=1 / ref=9 / deblock=1:1:1 / analyse=0x3:0x113 / me=umh / subme=10 / psy=1 / fade_compensate=1.00 / psy_rd=0.40:0.00 / mixed_ref=1 / me_range=32 / chroma_me=1 / trellis=2 / 8x8dct=1 / cqm=0 / deadzone=21,11 / fast_pskip=0 / chroma_qp_offset=-2 / threads=12 / sliced_threads=0 / nr=0 / decimate=0 / interlaced=0 / bluray_compat=0 / constrained_intra=0 / fgo=3 / bframes=6 / b_pyramid=2 / b_adapt=2 / b_bias=0 / direct=3 / weightb=1 / open_gop=0 / weightp=2 / keyint=240 / keyint_min=24 / scenecut=40 / intra_refresh=0 / rc_lookahead=64 / rc=crf / mbtree=1 / crf=17.0000 / qcomp=0.65 / qpmin=0 / qpmax=81 / qpstep=4 / vbv_maxrate=20000 / vbv_bufsize=20000 / crf_max=0.0 / nal_hrd=none / ip_ratio=1.40 / aq=2:1.00
Language                                 : Japanese
Default                                  : Yes
Forced                                   : No

Audio
ID                                       : 2
Format                                   : AAC
Format/Info                              : Advanced Audio Codec
Format profile                           : LC
Codec ID                                 : A_AAC
Duration                                 : 24 min 5 s
Bit rate                                 : 321 kb/s
Channel(s)                               : 2 channels
Channel positions                        : Front: L R
Sampling rate                            : 48.0 kHz
Frame rate                               : 46.875 FPS (1024 spf)
Compression mode                         : Lossy
Stream size                              : 55.4 MiB (15%)
Title                                    : AAC 2ch
Language                                 : Japanese
Default                                  : Yes
Forced                                   : No

Text
ID                                       : 3
Format                                   : ASS
Codec ID                                 : S_TEXT/ASS
Codec ID/Info                            : Advanced Sub Station Alpha
Duration                                 : 23 min 48 s
Bit rate                                 : 123 b/s
Count of elements                        : 361
Compression mode                         : Lossless
Stream size                              : 21.6 KiB (0%)
Default                                  : Yes
Forced                                   : No

Menu
00:00:00.033                             : en:OP
00:01:31.520                             : en:Episode
00:22:13.060                             : en:ED
00:23:43.900                             : en:Preview
beta
Anime DDL+NZB mirror
Current Time: 20/11/2017 22:39



About/FAQs