File Size324.5 MB (340,284,967 bytes)
DownloadClickNUpload | Go4Up
  • Ezfile
  • FileFactory
  • FilePup
  • MegaShares
  • Nitroflare
  • NowDownload
  • Oboom
  • OpenLoad
  • Rapidgator
  • Share-Online
  • ToutBox
  • Uplea
  • Uploadable
  • Uppit
  • UsersCloud
| Jheberg | MultiUp
  • ClickNupload
  • Fichier
  • Filerio
  • Free
  • Fufox
  • HugeFiles
  • Mightyupload
  • ToutBox
  • Turbobit
  • UpToBox
  • Uplea
  • UploadBaz
  • Uploadable
  • Uploaded
  • Uppit
  • Userscloud
| OpenLoad | SolidFiles
Sendspace: Part1, Part2
HashesCRC32: C6337FBC, MD5: 550BB7A306C91B5EE551F009CEB59191, SHA1: 349E099776718E18BF9B771483408E5DBC306FC1, SHA256: 3D7B7DA2B63A493E686C0886BD55FC7468FA247CA5D4C5DB67FE8C9B39FF2B46, ED2K: 29A114728E52C3F1C02B79A4FC50F175
Screenshots
screenshotscreenshotscreenshotscreenshotscreenshot
SubtitlesAll Attachments | und [ASS]
Additional Info
General
Unique ID                                : 121397627893315599359767241940150044175 (0x5B54552A1B0D50EA606C290D8C08C60F)
Complete name                            : [MTBB] Inuyashiki - 05 [C6337FBC].mkv
Format                                   : Matroska
Format version                           : Version 4 / Version 2
File size                                : 325 MiB
Duration                                 : 22 min 54 s
Overall bit rate                         : 1 980 kb/s
Encoded date                             : UTC 2017-11-10 16:09:10
Writing application                      : mkvmerge v7.3.0 ('Nouages') 64bit built on Oct 23 2014 13:14:01
Writing library                          : libebml v1.3.0 + libmatroska v1.4.1
Attachments                              : AKZIDENZGROTESKBQ-MEDIUM.OTF / arial.ttf / BELLGOTHICSTD-BLACK.OTF / DTLPROKYONT.OTF / GANDHISANS-BOLD.OTF / GANDHISANS-BOLDITALIC.OTF / HELVETICALTSTD-LIGHT.OTF / HELVETICANEUELT-ROMAN.TTF / QUADRAAT-REGULAR.OTF

Video
ID                                       : 1
Format                                   : AVC
Format/Info                              : Advanced Video Codec
Format profile                           : High 4:4:4 Predictive@L5
Format settings, CABAC                   : Yes
Format settings, ReFrames                : 16 frames
Codec ID                                 : V_MPEG4/ISO/AVC
Duration                                 : 22 min 54 s
Bit rate                                 : 1 745 kb/s
Width                                    : 1 440 pixels
Height                                   : 810 pixels
Display aspect ratio                     : 16:9
Frame rate mode                          : Constant
Frame rate                               : 23.976 (24000/1001) FPS
Color space                              : YUV
Chroma subsampling                       : 4:4:4
Bit depth                                : 10 bits
Scan type                                : Progressive
Bits/(Pixel*Frame)                       : 0.062
Stream size                              : 286 MiB (88%)
Writing library                          : x264 core 152 r2851+58 429492e t_mod_Custom [10-bit@all X86_64]
Encoding settings                        : cabac=1 / ref=16 / deblock=1:-1:-1 / analyse=0x1:0x131 / me=umh / subme=10 / psy=1 / fade_compensate=0.70 / psy_rd=0.80:0.00 / mixed_ref=1 / me_range=24 / chroma_me=1 / trellis=2 / 8x8dct=0 / cqm=0 / deadzone=21,11 / fast_pskip=0 / chroma_qp_offset=2 / threads=6 / lookahead_threads=1 / sliced_threads=0 / nr=0 / decimate=0 / interlaced=0 / bluray_compat=0 / constrained_intra=0 / fgo=0 / bframes=16 / b_pyramid=2 / b_adapt=2 / b_bias=0 / direct=3 / weightb=1 / open_gop=0 / weightp=2 / keyint=250 / keyint_min=24 / scenecut=40 / intra_refresh=0 / rc_lookahead=60 / rc=crf / mbtree=1 / crf=16.0000 / qcomp=0.68 / qpmin=0:0:0 / qpmax=81:81:81 / qpstep=4 / ip_ratio=1.40 / aq=3:0.80 / aq-sensitivity=10.00 / aq-factor=1.00:1.00:1.00 / aq2=0 / aq3=0
Default                                  : Yes
Forced                                   : No
Color range                              : Limited
Matrix coefficients                      : BT.709

Audio
ID                                       : 2
Format                                   : E-AC-3
Format/Info                              : Enhanced Audio Coding 3
Format settings, Endianness              : Big
Codec ID                                 : A_EAC3
Duration                                 : 22 min 54 s
Bit rate mode                            : Constant
Bit rate                                 : 224 kb/s
Channel(s)                               : 2 channels
Channel positions                        : Front: L R
Sampling rate                            : 48.0 kHz
Frame rate                               : 187.500 FPS (256 spf)
Compression mode                         : Lossy
Stream size                              : 36.7 MiB (11%)
Title                                    : EAC3
Language                                 : Japanese
Default                                  : No
Forced                                   : No

Text
ID                                       : 3
Format                                   : ASS
Codec ID                                 : S_TEXT/ASS
Codec ID/Info                            : Advanced Sub Station Alpha
Duration                                 : 22 min 48 s
Bit rate                                 : 970 b/s
Count of elements                        : 1317
Compression mode                         : Lossless
Stream size                              : 162 KiB (0%)
Default                                  : Yes
Forced                                   : No

Menu
00:00:00.033                             : en:Intro
00:01:02.010                             : en:OP
00:02:32.020                             : en:Episode
00:21:25.170                             : en:ED
beta
Anime DDL+NZB mirror
Current Time: 22/11/2017 22:12



About/FAQs