[Mr.Deadpool]Sword Art Online - Alicization - War of Underworld Ep-04 720p x265 Dual Audio.mkv


File Size219.9 MB (230,530,613 bytes)
DownloadAnonFiles | ClickNUpload | DropAPK | Free | MultiUp
  • BdUpload
  • DownAce
  • Fichier
  • FileCloud
  • Filerio
  • FilesCdn
  • IndiShare
  • Kbagi
  • Turbobit
  • UpToBox
  • Uppit
| Sendspace | SolidFiles | ZippyShare
HashesCRC32: 83F7334D, MD5: AD62A69B4411064FCAE1FEB963A834FE, SHA1: 44444C869F669A1B0CDFEE3BCD2DC30F143E323E, SHA256: CC01ECE2137EACA720E33FA4FA3A7559DEAFD9AFE21A083C4C7650043E68A5EE, ED2K: 3E8A0D46327365C742D0F0AE9CF10065
Screenshots
screenshotscreenshotscreenshotscreenshotscreenshot
SubtitlesAll Attachments | eng [ASS], jpn [ASS], jpn [ASS]
Additional Info
General
Unique ID                                : 327319142601510771017651041210867824490 (0xF63F5FB20F897EFE5D395A9CAB6EB76A)
Complete name                            : [Mr.Deadpool]Sword Art Online - Alicization - War of Underworld Ep-04 720p x265 Dual Audio.mkv
Format                                   : Matroska
Format version                           : Version 4
File size                                : 220 MiB
Duration                                 : 23 min 41 s
Overall bit rate                         : 1 298 kb/s
Movie name                               : Ep-04-The Final Load Test
Encoded date                             : UTC 2020-02-12 08:03:21
Writing application                      : mkvmerge v42.0.0 ('Overtime') 32-bit
Writing library                          : libebml v1.3.10 + libmatroska v1.5.2
Cover                                    : Yes
Attachments                              : cover.jpg / BELLGOTHIC-BOLD.TTF / FUTURA.OTF / GandhiSans-Bold.otf / GandhiSans-BoldItalic.otf / OPTIMALTSTD-BOLD.OTF / QUADRAAT-BOLD.OTF
Writing application                      : Internet Friendly Media Encoder v7.7 ('Prism Ark')
Writing library                          : IFME v7.7 amd64 windows

Video
ID                                       : 1
Format                                   : HEVC
Format/Info                              : High Efficiency Video Coding
Format profile                           : Main 10@L4@Main
Codec ID                                 : V_MPEGH/ISO/HEVC
Duration                                 : 23 min 40 s
Bit rate                                 : 1 031 kb/s
Width                                    : 1 280 pixels
Height                                   : 720 pixels
Display aspect ratio                     : 16:9
Frame rate mode                          : Constant
Frame rate                               : 23.976 (24000/1001) FPS
Original frame rate                      : 23.976 (23976/1000) FPS
Color space                              : YUV
Chroma subsampling                       : 4:2:0
Bit depth                                : 10 bits
Bits/(Pixel*Frame)                       : 0.047
Stream size                              : 175 MiB (79%)
Writing library                          : x265 2.6+13-6b079854e56e:[Windows][GCC 7.1.0][64 bit] 10bit
Encoding settings                        : cpuid=1173503 / frame-threads=3 / numa-pools=8 / wpp / no-pmode / no-pme / no-psnr / no-ssim / log-level=2 / input-csp=1 / input-res=1280x720 / interlace=0 / total-frames=0 / level-idc=0 / high-tier=1 / uhd-bd=0 / ref=6 / no-allow-non-conformance / no-repeat-headers / annexb / no-aud / no-hrd / info / hash=0 / no-temporal-layers / open-gop / min-keyint=23 / keyint=250 / gop-lookahead=0 / bframes=4 / b-adapt=2 / b-pyramid / bframe-bias=0 / rc-lookahead=25 / lookahead-slices=4 / scenecut=40 / no-intra-refresh / ctu=64 / min-cu-size=8 / rect / no-amp / max-tu-size=32 / tu-inter-depth=1 / tu-intra-depth=1 / limit-tu=0 / rdoq-level=2 / dynamic-rd=0.00 / no-ssim-rd / signhide / no-tskip / nr-intra=0 / nr-inter=0 / no-constrained-intra / strong-intra-smoothing / max-merge=3 / limit-refs=3 / limit-modes / me=3 / subme=3 / merange=57 / temporal-mvp / weightp / no-weightb / no-analyze-src-pics / deblock=0:0 / sao / no-sao-non-deblock / rd=4 / no-early-skip / rskip / no-fast-intra / no-tskip-fast / no-cu-lossless / no-b-intra / no-splitrd-skip / rdpenalty=0 / psy-rd=0.80 / psy-rdoq=1.00 / no-rd-refine / analysis-reuse-mode=0 / no-lossless / cbqpoffs=0 / crqpoffs=0 / rc=crf / crf=22.0 / qcomp=0.60 / qpstep=4 / stats-write=0 / stats-read=0 / ipratio=1.40 / pbratio=1.30 / aq-mode=3 / aq-strength=0.90 / cutree / zone-count=0 / no-strict-cbr / qg-size=32 / no-rc-grain / qpmax=69 / qpmin=0 / no-const-vbv / sar=1 / overscan=0 / videoformat=5 / range=0 / colorprim=2 / transfer=2 / colormatrix=2 / chromaloc=0 / display-window=0 / max-cll=0,0 / min-luma=0 / max-luma=1023 / log2-max-poc-lsb=8 / vui-timing-info / vui-hrd-info / slices=1 / no-opt-qp-pps / no-opt-ref-list-length-pps / no-multi-pass-opt-rps / scenecut-bias=0.05 / no-opt-cu-delta-qp / no-aq-motion / no-hdr / no-hdr-opt / no-dhdr10-opt / analysis-reuse-level=5 / scale-factor=0 / refine-intra=0 / refine-inter=0 / refine-mv=0 / no-limit-sao / ctu-info=0 / no-lowpass-dct / refine-mv-type=0 / copy-pic=1
Language                                 : Japanese
Default                                  : Yes
Forced                                   : No

Audio #1
ID                                       : 2
Format                                   : AAC LC
Format/Info                              : Advanced Audio Codec Low Complexity
Codec ID                                 : A_AAC-2
Duration                                 : 23 min 40 s
Bit rate                                 : 129 kb/s
Channel(s)                               : 2 channels
Channel layout                           : L R
Sampling rate                            : 44.1 kHz
Frame rate                               : 43.066 FPS (1024 SPF)
Compression mode                         : Lossy
Stream size                              : 21.9 MiB (10%)
Language                                 : English
Default                                  : Yes
Forced                                   : No

Audio #2
ID                                       : 3
Format                                   : AAC LC
Format/Info                              : Advanced Audio Codec Low Complexity
Codec ID                                 : A_AAC-2
Duration                                 : 23 min 40 s
Bit rate                                 : 132 kb/s
Channel(s)                               : 2 channels
Channel layout                           : L R
Sampling rate                            : 44.1 kHz
Frame rate                               : 43.066 FPS (1024 SPF)
Compression mode                         : Lossy
Stream size                              : 22.0 MiB (10%)
Language                                 : Japanese
Default                                  : No
Forced                                   : No

Text #1
ID                                       : 4
Format                                   : ASS
Codec ID                                 : S_TEXT/ASS
Codec ID/Info                            : Advanced Sub Station Alpha
Duration                                 : 21 min 45 s
Bit rate                                 : 448 b/s
Count of elements                        : 302
Compression mode                         : Lossless
Stream size                              : 71.4 KiB (0%)
Language                                 : English
Default                                  : Yes
Forced                                   : No

Text #2
ID                                       : 5
Format                                   : ASS
Codec ID                                 : S_TEXT/ASS
Codec ID/Info                            : Advanced Sub Station Alpha
Duration                                 : 23 min 33 s
Bit rate                                 : 483 b/s
Count of elements                        : 485
Compression mode                         : Lossless
Stream size                              : 83.5 KiB (0%)
Language                                 : Japanese
Default                                  : No
Forced                                   : No

Text #3
ID                                       : 6
Format                                   : ASS
Codec ID                                 : S_TEXT/ASS
Codec ID/Info                            : Advanced Sub Station Alpha
Duration                                 : 23 min 33 s
Bit rate                                 : 483 b/s
Count of elements                        : 485
Compression mode                         : Lossless
Stream size                              : 83.5 KiB (0%)
Language                                 : Japanese
Default                                  : No
Forced                                   : No

Menu
00:00:00.033                             : en:Intro
00:02:34.000                             : en:OP
00:04:03.980                             : en:Episode
00:21:19.230                             : en:ED
00:22:49.180                             : en:Epilogue
00:23:35.030                             : en:Preview

Other Files in this Torrent
[Mr.Deadpool]Sword Art Online - Alicization - War of Underworld Ep-04 720p x265 Dual Audio.mkv
beta
Anime DDL+NZB mirror
Current Time: 20/04/2024 10:07



About/FAQs

Discord