[MoyaiSubs] Godzilla Singular Point - 08 (Web 1080p AAC) [DE79AE44].mkv


File Size818.2 MB (857,925,643 bytes)
DownloadClickNUpload | DropAPK | Free
MultiUp: Part1
  • BdUpload
  • DownAce
  • Fichier
  • FileCloud
  • Filerio
  • FilesCdn
  • IndiShare
  • Kbagi
  • Turbobit
  • UpToBox
  • Uppit
, Part2
  • BdUpload
  • DownAce
  • Fichier
  • FileCloud
  • Filerio
  • FilesCdn
  • IndiShare
  • Kbagi
  • Turbobit
  • UpToBox
  • Uppit

SolidFiles: Part1, Part2
ZippyShare: Part1, Part2
HashesCRC32: DE79AE44, MD5: 6E30304B6A62890D437818DFC3ABA33F, SHA1: 82DC4DD111CA2560264287035A95AE020B2553C4, SHA256: 19719A3C610BF4FBA7A8EDC9D88411AD301687ECD3974DC7D6ACDE06843B8909, ED2K: D8804266B24D0CAA299D1607C8C3D0C4
Screenshots
screenshotscreenshotscreenshotscreenshotscreenshot
SubtitlesAll Attachments | eng [ASS]
Additional Info
General
Unique ID                                : 167659254480963439815201298320070913404 (0x7E21FF7422F349C5A7FD4CB53C71AD7C)
Complete name                            : [MoyaiSubs] Godzilla Singular Point - 08 (Web 1080p AAC) [DE79AE44].mkv
Format                                   : Matroska
Format version                           : Version 4
File size                                : 818 MiB
Duration                                 : 23 min 34 s
Overall bit rate                         : 4 850 kb/s
Encoded date                             : UTC 2021-05-17 17:16:22
Writing application                      : mkvmerge v42.0.0 ('Overtime') 32-bit
Writing library                          : libebml v1.3.10 + libmatroska v1.5.2
Attachments                              : FontsFree-Net-SFProDisplay-Regular.ttf / OliviaBrush-vME.ttf / SANLABELLO.TTF / Amaranth-Regular.ttf / arial.ttf / Cartoon_Regular.ttf / FromWhereYouAre.ttf / NirmalaB.ttf / PTSansTightBold.ttf / keifont.ttf

Video
ID                                       : 2
Format                                   : AVC
Format/Info                              : Advanced Video Codec
Format profile                           : High 10@L4.1
Format settings                          : CABAC / 16 Ref Frames
Format settings, CABAC                   : Yes
Format settings, ReFrames                : 16 frames
Codec ID                                 : V_MPEG4/ISO/AVC
Duration                                 : 23 min 34 s
Bit rate                                 : 4 674 kb/s
Width                                    : 1 920 pixels
Height                                   : 1 080 pixels
Display aspect ratio                     : 16:9
Frame rate mode                          : Constant
Frame rate                               : 23.976 (24000/1001) FPS
Color space                              : YUV
Chroma subsampling                       : 4:2:0
Bit depth                                : 10 bits
Scan type                                : Progressive
Bits/(Pixel*Frame)                       : 0.094
Stream size                              : 788 MiB (96%)
Writing library                          : x264 core 161 r3039 544c61f
Encoding settings                        : cabac=1 / ref=16 / deblock=1:-1:-1 / analyse=0x3:0x133 / me=umh / subme=10 / psy=1 / psy_rd=1.00:0.10 / mixed_ref=1 / me_range=32 / chroma_me=1 / trellis=2 / 8x8dct=1 / cqm=0 / deadzone=21,11 / fast_pskip=1 / chroma_qp_offset=-3 / threads=18 / lookahead_threads=4 / sliced_threads=0 / nr=0 / decimate=0 / interlaced=0 / bluray_compat=0 / constrained_intra=0 / bframes=16 / b_pyramid=2 / b_adapt=2 / b_bias=0 / direct=3 / weightb=1 / open_gop=0 / weightp=2 / keyint=250 / keyint_min=1 / scenecut=40 / intra_refresh=0 / rc_lookahead=60 / rc=crf / mbtree=1 / crf=19.0 / qcomp=0.70 / qpmin=0 / qpmax=81 / qpstep=4 / ip_ratio=1.40 / aq=3:1.00
Default                                  : Yes
Forced                                   : No

Audio
ID                                       : 3
Format                                   : AAC LC SBR
Format/Info                              : Advanced Audio Codec Low Complexity with Spectral Band Replication
Commercial name                          : HE-AAC
Format settings                          : Explicit
Codec ID                                 : A_AAC-2
Duration                                 : 23 min 34 s
Bit rate                                 : 128 kb/s
Channel(s)                               : 2 channels
Channel layout                           : L R
Sampling rate                            : 48.0 kHz
Frame rate                               : 23.438 FPS (2048 SPF)
Compression mode                         : Lossy
Stream size                              : 21.6 MiB (3%)
Default                                  : Yes
Forced                                   : No

Text
ID                                       : 1
Format                                   : ASS
Codec ID                                 : S_TEXT/ASS
Codec ID/Info                            : Advanced Sub Station Alpha
Duration                                 : 23 min 14 s
Bit rate                                 : 1 396 b/s
Count of elements                        : 1926
Compression mode                         : Lossless
Stream size                              : 238 KiB (0%)
Language                                 : English
Default                                  : Yes
Forced                                   : No

Menu
00:00:00.000                             : :Intro
00:01:33.010                             : :OP
00:03:02.974                             : :Part A
00:11:28.021                             : :Part B
00:22:06.575                             : :ED
beta
Anime DDL+NZB mirror
Current Time: 02/08/2021 06:13



About/FAQs