File Size1.214 GB (1,303,300,419 bytes)
DownloadClickNUpload | GoFile | MdiaLoad
DownloadGG: Part1, Part2
KrakenFiles: Part1, Part2
MultiUp: Part1
  • BdUpload
  • DownAce
  • Fichier
  • FileCloud
  • Filerio
  • FilesCdn
  • IndiShare
  • Kbagi
  • Turbobit
  • UpToBox
  • Uppit
, Part2
  • BdUpload
  • DownAce
  • Fichier
  • FileCloud
  • Filerio
  • FilesCdn
  • IndiShare
  • Kbagi
  • Turbobit
  • UpToBox
  • Uppit
, Part3
  • BdUpload
  • DownAce
  • Fichier
  • FileCloud
  • Filerio
  • FilesCdn
  • IndiShare
  • Kbagi
  • Turbobit
  • UpToBox
  • Uppit
HashesCRC32: 974D2481, MD5: 3DE1CD9974AF149AA42BD67E62ABB322, SHA1: E18FE408CA6BB767A6D38E736F7496857E2F890E, SHA256: B2BAB669D1611499B3DE97CE738231E046561B9FCDA9BA7EFF4978EF1C67DC03, ED2K: 6D5D282FFE73FB55BFF3E3D8CCAF972F
Screenshots
screenshotscreenshotscreenshotscreenshotscreenshot
SubtitlesAll Attachments | Signs & Songs [Moby JJ] [eng, ASS], Full Subtitles [Quincetuple] [eng, ASS]
Additional Info
General
Unique ID                                : 167663412573671343062631028336274992426 (0x7E22CC76A51C76BF66668B0ECC786D2A)
Complete name                            : Monthly.Girls.Nozaki-kun.S01E07.v2.1080p.BluRay.10-Bit.Dual-Audio.FLAC2.0.x265-YURASUKA.mkv
Format                                   : Matroska
Format version                           : Version 4
File size                                : 1.21 GiB
Duration                                 : 23 min 57 s
Overall bit rate mode                    : Variable
Overall bit rate                         : 7 251 kb/s
Movie name                               : Monthly Girls' Nozaki-kun - S01E07 - YURASUKA
Encoded date                             : UTC 2023-04-01 05:36:12
Writing application                      : mkvmerge v75.0.0 ('Goliath') 64-bit
Writing library                          : libebml v1.4.4 + libmatroska v1.7.1
Attachments                              : ALBED.TTF / AmateurComic.ttf / ARLRDBD.TTF / AvenirLTStd-Black.otf / Big Fat Marker.ttf / calibrib.ttf / calibriz.ttf / erasdust.ttf / marker / pala.ttf / palab.ttf / Passing Notes.otf / pencilfied.ttf / Profile-Regular.otf / RaysHand-Regular.ttf / RolandBecker Bold.ttf / scott_.ttf / segoeprb.ttf / SEMPB_.TTF / ufonts.com_chianti-win95bt.ttf / AdobeGothicStd-Bold.ttf / ALBED_.TTF / Alberta_Regular.ttf / ALMAGRO.TTF / AmateurComic.otf / animeace2_reg.otf / Arial Rounded MT_0.ttf / ARLRDBD_1.TTF / AuriolLTStd-Black.otf / Big Fat Marker_0.ttf / calibri.otf / calibrib.otf / calibrii.otf / calibril.otf / calibrili.otf / calibriz.otf / Disney_Simple.ttf / edo.ttf / EFN_OknoFont.ttf / ERASDUS0.TTF / GothamRnd-Bold.otf / GothamRnd-BoldIta.otf / GothamRnd-MedIta.otf / GothamRnd-Medium.otf / Marker SD 1.2.ttf / Montara-BoldGothic.otf / Montara-Gothic.otf / Niew CroMagnon.ttf / NothingYouCouldSay.otf / OpenSans-Bold.otf / OpenSans-Regular.otf / OpenSans-Semibold.otf / pala.otf / palabi.otf / palai.otf / Palatino Linotype Bold.otf / PAPEJE.TTF / Passing Notes_0.otf / Pen_of_Truth___FREE_FONT_by_Sonira.ttf / Pinguino.ttf / plantc.ttf / PLASTIC TOMATO.TTF / Profile-Medium.otf / Prototype.ttf / raavi.otf / raavib.otf / RAVIE.TTF / RaysHand-Regular_0.ttf / rexlia rg.otf / RolandBecker Bold_0.ttf / RolandBecker_0.ttf / RubThis.TTF / scott__.ttf / segoepr.otf / segoeprb.otf / SEMPB__.TTF / SEMPER_.TTF / SEMPI__.TTF / AmateurComic_0.ttf / GothamRnd-Bold_0.otf / GothamRnd-BoldIta_0.otf / GothamRnd-MedIta_1.otf / GothamRnd-Medium_1.otf / OpenSans-Bold.ttf / OpenSans-Regular.ttf / OpenSans-Semibold.ttf / ufonts.com_cc_astro_city.ttf

Video
ID                                       : 1
Format                                   : HEVC
Format/Info                              : High Efficiency Video Coding
Format profile                           : Main 10@L5@Main
Codec ID                                 : V_MPEGH/ISO/HEVC
Duration                                 : 23 min 57 s
Bit rate                                 : 5 817 kb/s
Width                                    : 1 920 pixels
Height                                   : 1 080 pixels
Display aspect ratio                     : 16:9
Frame rate mode                          : Constant
Frame rate                               : 23.976 (24000/1001) FPS
Color space                              : YUV
Chroma subsampling                       : 4:2:0
Bit depth                                : 10 bits
Bits/(Pixel*Frame)                       : 0.117
Stream size                              : 996 MiB (80%)
Title                                    : YURASUKA 1080p x265 v2
Writing library                          : x265 3.5:[Linux][GCC 11.2.0][64 bit] 10bit
Encoding settings                        : cpuid=1111039 / frame-threads=4 / numa-pools=24 / wpp / no-pmode / no-pme / no-psnr / no-ssim / log-level=2 / input-csp=1 / input-res=1920x1080 / interlace=0 / total-frames=0 / level-idc=0 / high-tier=1 / uhd-bd=0 / ref=6 / no-allow-non-conformance / no-repeat-headers / annexb / no-aud / no-hrd / info / hash=0 / no-temporal-layers / open-gop / min-keyint=1 / keyint=360 / gop-lookahead=0 / bframes=16 / b-adapt=2 / b-pyramid / bframe-bias=0 / rc-lookahead=72 / lookahead-slices=4 / scenecut=40 / hist-scenecut=0 / radl=0 / no-splice / no-intra-refresh / ctu=32 / min-cu-size=8 / rect / amp / max-tu-size=32 / tu-inter-depth=4 / tu-intra-depth=4 / limit-tu=0 / rdoq-level=2 / dynamic-rd=4.00 / no-ssim-rd / signhide / tskip / nr-intra=0 / nr-inter=0 / no-constrained-intra / strong-intra-smoothing / max-merge=3 / limit-refs=3 / limit-modes / me=3 / subme=7 / merange=57 / temporal-mvp / no-frame-dup / no-hme / weightp / weightb / no-analyze-src-pics / deblock=0:0 / no-sao / no-sao-non-deblock / rd=4 / selective-sao=0 / no-early-skip / rskip / no-fast-intra / no-tskip-fast / no-cu-lossless / b-intra / no-splitrd-skip / rdpenalty=0 / psy-rd=2.00 / psy-rdoq=2.00 / no-rd-refine / no-lossless / cbqpoffs=0 / crqpoffs=0 / rc=crf / crf=16.0 / qcomp=0.72 / qpstep=4 / stats-write=0 / stats-read=0 / vbv-maxrate=20000 / vbv-bufsize=20000 / vbv-init=0.9 / min-vbv-fullness=50.0 / max-vbv-fullness=80.0 / crf-max=0.0 / crf-min=0.0 / ipratio=1.40 / pbratio=1.30 / aq-mode=3 / aq-strength=0.85 / cutree / zone-count=0 / no-strict-cbr / qg-size=32 / no-rc-grain / qpmax=69 / qpmin=0 / no-const-vbv / sar=0 / overscan=0 / videoformat=5 / range=0 / colorprim=1 / transfer=1 / colormatrix=1 / chromaloc=0 / display-window=0 / cll=0,0 / min-luma=0 / max-luma=1023 / log2-max-poc-lsb=8 / vui-timing-info / vui-hrd-info / slices=1 / no-opt-qp-pps / no-opt-ref-list-length-pps / no-multi-pass-opt-rps / scenecut-bias=0.05 / hist-threshold=0.03 / no-opt-cu-delta-qp / no-aq-motion / no-hdr10 / no-hdr10-opt / no-dhdr10-opt / no-idr-recovery-sei / analysis-reuse-level=0 / analysis-save-reuse-level=0 / analysis-load-reuse-level=0 / scale-factor=0 / refine-intra=0 / refine-inter=0 / refine-mv=1 / refine-ctu-distortion=0 / no-limit-sao / ctu-info=0 / no-lowpass-dct / refine-analysis-type=0 / copy-pic=1 / max-ausize-factor=1.0 / no-dynamic-refine / no-single-sei / no-hevc-aq / no-svt / no-field / qp-adaptation-range=1.00 / scenecut-aware-qp=0conformance-window-offsets / right=0 / bottom=0 / decoder-max-rate=0 / no-vbv-live-multi-pass
Language                                 : Japanese
Default                                  : Yes
Forced                                   : No
Color range                              : Limited
Color primaries                          : BT.709
Transfer characteristics                 : BT.709
Matrix coefficients                      : BT.709

Audio #1
ID                                       : 2
Format                                   : FLAC
Format/Info                              : Free Lossless Audio Codec
Codec ID                                 : A_FLAC
Duration                                 : 23 min 57 s
Bit rate mode                            : Variable
Bit rate                                 : 614 kb/s
Channel(s)                               : 2 channels
Channel layout                           : L R
Sampling rate                            : 48.0 kHz
Frame rate                               : 11.719 FPS (4096 SPF)
Bit depth                                : 16 bits
Compression mode                         : Lossless
Stream size                              : 105 MiB (8%)
Title                                    : English FLAC 2.0
Writing library                          : libFLAC 1.2.1 (UTC 2007-09-17)
Language                                 : English
Default                                  : Yes
Forced                                   : No

Audio #2
ID                                       : 3
Format                                   : FLAC
Format/Info                              : Free Lossless Audio Codec
Codec ID                                 : A_FLAC
Duration                                 : 23 min 57 s
Bit rate mode                            : Variable
Bit rate                                 : 717 kb/s
Channel(s)                               : 2 channels
Channel layout                           : L R
Sampling rate                            : 48.0 kHz
Frame rate                               : 10.417 FPS (4608 SPF)
Bit depth                                : 16 bits
Compression mode                         : Lossless
Stream size                              : 123 MiB (10%)
Title                                    : Japanese FLAC 2.0
Language                                 : Japanese
Default                                  : No
Forced                                   : No

Text #1
ID                                       : 4
Format                                   : ASS
Codec ID                                 : S_TEXT/ASS
Codec ID/Info                            : Advanced Sub Station Alpha
Duration                                 : 22 min 33 s
Bit rate                                 : 438 b/s
Count of elements                        : 562
Compression mode                         : Lossless
Stream size                              : 72.5 KiB (0%)
Title                                    : Signs & Songs [Moby JJ]
Language                                 : English
Default                                  : Yes
Forced                                   : Yes

Text #2
ID                                       : 5
Format                                   : ASS
Codec ID                                 : S_TEXT/ASS
Codec ID/Info                            : Advanced Sub Station Alpha
Duration                                 : 23 min 48 s
Bit rate                                 : 529 b/s
Count of elements                        : 926
Compression mode                         : Lossless
Stream size                              : 92.4 KiB (0%)
Title                                    : Full Subtitles [Quincetuple]
Language                                 : English
Default                                  : No
Forced                                   : No

Menu
00:00:00.000                             : en:Intro
00:01:07.985                             : en:Opening
00:02:38.033                             : en:Part A
00:12:21.032                             : en:Part B
00:21:52.019                             : en:Ending
00:23:21.984                             : en:Part C
00:23:41.003                             : en:Preview

Other Files in this Torrent
Monthly.Girls.Nozaki-kun.S01E07.v2.1080p.BluRay.10-Bit.Dual-Audio.FLAC2.0.x265-YURASUKA.mkv
beta
Anime DDL+NZB mirror
Current Time: 24/05/2024 22:01



About/FAQs

Discord