File Size98.02 MB (102,779,886 bytes)
DownloadClickNUpload | Jheberg | MultiUp
  • BdUpload
  • DownAce
  • Fichier
  • FileCloud
  • Filerio
  • FilesCdn
  • IndiShare
  • Kbagi
  • Solidfiles
  • Turbobit
  • UpToBox
  • Uppit
| OpenLoad | Sendspace | ZippyShare
HashesCRC32: CE06C008, MD5: 6236296D4BD56F2CFAFBB65CFAFF217D, SHA1: 67502B8DDB2AA0DF24FE89513D47A2A6EDF3F009, SHA256: A72C17C5FCD378127D0995230C4DAB1CAE57E75A01ECD50BB049A839EE4B6ACD, ED2K: 8673702C2346D5DD5B88990240220C4F
Screenshots
screenshotscreenshotscreenshotscreenshotscreenshot
SubtitlesAll Attachments | eng [ASS], spa [ASS], por [ASS]
Additional Info
General
Unique ID                                : 286489043746618203400834588076982053623 (0xD787C8662C7AC9C4C5E64981B56AAAF7)
Complete name                            : [Mogami-raws] Midara na Ao-chan wa Benkyou ga Dekinai - 06v2 [1080p HEVC 10bit].mkv
Format                                   : Matroska
Format version                           : Version 4
File size                                : 98.0 MiB
Duration                                 : 12 min 59 s
Overall bit rate                         : 1 054 kb/s
Encoded date                             : UTC 2019-05-11 11:23:57
Writing application                      : mkvmerge v33.1.0 ('Primrose') 64-bit
Writing library                          : libebml v1.3.7 + libmatroska v1.5.0

Video
ID                                       : 1
Format                                   : HEVC
Format/Info                              : High Efficiency Video Coding
Format profile                           : Main 10@L4@Main
Codec ID                                 : V_MPEGH/ISO/HEVC
Duration                                 : 12 min 59 s
Bit rate                                 : 924 kb/s
Width                                    : 1 920 pixels
Height                                   : 1 080 pixels
Display aspect ratio                     : 16:9
Frame rate mode                          : Constant
Frame rate                               : 23.976 (24000/1001) FPS
Color space                              : YUV
Chroma subsampling                       : 4:2:0
Bit depth                                : 10 bits
Bits/(Pixel*Frame)                       : 0.019
Stream size                              : 85.9 MiB (88%)
Default                                  : Yes
Forced                                   : No

Audio
ID                                       : 2
Format                                   : AAC LC
Format/Info                              : Advanced Audio Codec Low Complexity
Codec ID                                 : A_AAC-2
Duration                                 : 12 min 59 s
Bit rate                                 : 128 kb/s
Channel(s)                               : 2 channels
Channel layout                           : L R
Sampling rate                            : 44.1 kHz
Frame rate                               : 43.066 FPS (1024 SPF)
Compression mode                         : Lossy
Stream size                              : 11.9 MiB (12%)
Language                                 : Japanese
Default                                  : Yes
Forced                                   : No

Text #1
ID                                       : 3
Format                                   : ASS
Codec ID                                 : S_TEXT/ASS
Codec ID/Info                            : Advanced Sub Station Alpha
Duration                                 : 12 min 11 s
Bit rate                                 : 145 b/s
Count of elements                        : 207
Compression mode                         : Lossless
Stream size                              : 13.0 KiB (0%)
Language                                 : English
Default                                  : Yes
Forced                                   : No

Text #2
ID                                       : 4
Format                                   : ASS
Codec ID                                 : S_TEXT/ASS
Codec ID/Info                            : Advanced Sub Station Alpha
Duration                                 : 12 min 11 s
Bit rate                                 : 131 b/s
Count of elements                        : 197
Compression mode                         : Lossless
Stream size                              : 11.8 KiB (0%)
Language                                 : Spanish
Default                                  : No
Forced                                   : No

Text #3
ID                                       : 5
Format                                   : ASS
Codec ID                                 : S_TEXT/ASS
Codec ID/Info                            : Advanced Sub Station Alpha
Duration                                 : 12 min 11 s
Bit rate                                 : 144 b/s
Count of elements                        : 210
Compression mode                         : Lossless
Stream size                              : 12.9 KiB (0%)
Language                                 : Portuguese
Default                                  : No
Forced                                   : No
beta
Anime DDL+NZB mirror
Current Time: 09/12/2019 02:39



About/FAQs