[Modders Heaven] Attack On Titan [1080P] S3 - 05.m4v


File Size2.115 GB (2,271,063,334 bytes)
DownloadAnonFiles: Part1, Part2
DropAPK: Part1, Part2
Free: Part1, Part2, Part3
MultiUp: Part1
  • BdUpload
  • DownAce
  • Fichier
  • FileCloud
  • Filerio
  • FilesCdn
  • IndiShare
  • Kbagi
  • Turbobit
  • UpToBox
  • Uppit
, Part2
  • BdUpload
  • DownAce
  • Fichier
  • FileCloud
  • Filerio
  • FilesCdn
  • IndiShare
  • Kbagi
  • Turbobit
  • UpToBox
  • Uppit
, Part3
  • BdUpload
  • DownAce
  • Fichier
  • FileCloud
  • Filerio
  • FilesCdn
  • IndiShare
  • Kbagi
  • Turbobit
  • UpToBox
  • Uppit
, Part4
  • BdUpload
  • DownAce
  • Fichier
  • FileCloud
  • Filerio
  • FilesCdn
  • IndiShare
  • Kbagi
  • Turbobit
  • UpToBox
  • Uppit
, Part5
  • BdUpload
  • DownAce
  • Fichier
  • FileCloud
  • Filerio
  • FilesCdn
  • IndiShare
  • Kbagi
  • Turbobit
  • UpToBox
  • Uppit

SolidFiles: Part1, Part2, Part3, Part4, Part5
ZippyShare: Part1, Part2, Part3, Part4, Part5
HashesCRC32: EFB0D198, MD5: 60735E3AA926C64AA12467E4B4E45A81, SHA1: E483E50C99286CF1D2F7E887B382E3397180D483, SHA256: 02A8A4F2459DA42BFE22603232FCC1EA833A3C796F663035CA196E5589926546, ED2K: 0CB8892551DC3515B89F694F24D51B3F
Screenshots
screenshotscreenshotscreenshotscreenshotscreenshot
Additional Info
General
Complete name                            : [Modders Heaven] Attack On Titan [1080P] S3 - 05.m4v
Format                                   : MPEG-4
Format profile                           : Base Media / Version 2
Codec ID                                 : mp42 (isom/iso2/mp41)
File size                                : 2.12 GiB
Duration                                 : 23 min 56 s
Overall bit rate                         : 12.7 Mb/s
Movie name                               : [Judas] Shingeki no Kyojin S3 - 07
Encoded date                             : UTC 2020-11-28 10:39:44
Tagged date                              : UTC 2020-11-28 10:39:44
Writing application                      : HandBrake 1.2.1 2019021900

Video
ID                                       : 1
Format                                   : HEVC
Format/Info                              : High Efficiency Video Coding
Format profile                           : Main@L4@Main
Codec ID                                 : hvc1
Codec ID/Info                            : High Efficiency Video Coding
Duration                                 : 23 min 56 s
Bit rate                                 : 12.5 Mb/s
Width                                    : 1 920 pixels
Height                                   : 1 080 pixels
Display aspect ratio                     : 16:9
Frame rate mode                          : Variable
Frame rate                               : 23.976 (24000/1001) FPS
Minimum frame rate                       : 23.974 FPS
Maximum frame rate                       : 23.981 FPS
Color space                              : YUV
Chroma subsampling                       : 4:2:0
Bit depth                                : 8 bits
Bits/(Pixel*Frame)                       : 0.251
Stream size                              : 2.09 GiB (99%)
Encoded date                             : UTC 2020-11-28 10:39:44
Tagged date                              : UTC 2020-11-28 10:39:44
Color range                              : Limited
Color primaries                          : BT.709
Transfer characteristics                 : BT.709
Matrix coefficients                      : BT.709
Menus                                    : 3
Codec configuration box                  : hvcC

Audio
ID                                       : 2
Format                                   : AAC LC
Format/Info                              : Advanced Audio Codec Low Complexity
Codec ID                                 : mp4a-40-2
Duration                                 : 23 min 56 s
Bit rate mode                            : Constant
Bit rate                                 : 160 kb/s
Channel(s)                               : 2 channels
Channel layout                           : L R
Sampling rate                            : 48.0 kHz
Frame rate                               : 46.875 FPS (1024 SPF)
Compression mode                         : Lossy
Stream size                              : 27.4 MiB (1%)
Title                                    : Stereo
Language                                 : Japanese
Default                                  : Yes
Alternate group                          : 1
Encoded date                             : UTC 2020-11-28 10:39:44
Tagged date                              : UTC 2020-11-28 10:39:44
Menus                                    : 3

Menu
ID                                       : 3
Codec ID                                 : text
Duration                                 : 23 min 56 s
Language                                 : English
Encoded date                             : UTC 2020-11-28 10:39:44
Tagged date                              : UTC 2020-11-28 10:39:44
Menu For                                 : 1,2
00:00:00.000                             : OP
00:01:30.966                             : Part A
00:08:33.972                             : Part B
00:22:09.995                             : ED
00:23:40.002                             : Preview
Bit rate mode                            : VBR
beta
Anime DDL+NZB mirror
Current Time: 31/07/2021 03:40



About/FAQs