File Size291.6 MB (305,766,734 bytes)
DownloadAnonFiles | ClickNUpload | DropAPK | Free | MultiUp
  • BdUpload
  • DownAce
  • Fichier
  • FileCloud
  • Filerio
  • FilesCdn
  • IndiShare
  • Kbagi
  • Turbobit
  • UpToBox
  • Uppit
| Sendspace | SolidFiles | ZippyShare
HashesCRC32: C3C13982, MD5: 9142F5A3DBF276EB57F272C51BBCF98E, SHA1: C38F45B7AD272116EFA5933369FBE96A1156AB7E, SHA256: 6863FC7475EC919E9E0B4ECB4C0AB68B9EA9838E1C791A940BCE47B71E970B91, ED2K: 1C8E7C4C10A450CCC9FE3FF79FF8EAFA
Screenshots
screenshotscreenshotscreenshotscreenshotscreenshot
Additional Info
General
Complete name                            : Mob Psycho 100-05-1080p.mp4
Format                                   : MPEG-4
Codec ID                                 : M4V  (isom/avc1/M4A /M4V /mp42)
File size                                : 292 MiB
Duration                                 : 24 min 12 s
Overall bit rate mode                    : Variable
Overall bit rate                         : 1 685 kb/s
Encoded date                             : UTC 2020-05-21 01:02:50
Tagged date                              : UTC 2020-05-21 01:02:50

Video
ID                                       : 1
Format                                   : AVC
Format/Info                              : Advanced Video Codec
Format profile                           : High@L4
Format settings                          : CABAC / 4 Ref Frames
Format settings, CABAC                   : Yes
Format settings, ReFrames                : 4 frames
Codec ID                                 : avc1
Codec ID/Info                            : Advanced Video Coding
Duration                                 : 24 min 12 s
Bit rate                                 : 1 583 kb/s
Maximum bit rate                         : 19.2 Mb/s
Width                                    : 1 920 pixels
Height                                   : 1 080 pixels
Display aspect ratio                     : 16:9
Frame rate mode                          : Constant
Frame rate                               : 23.976 (24000/1001) FPS
Color space                              : YUV
Chroma subsampling                       : 4:2:0
Bit depth                                : 8 bits
Scan type                                : Progressive
Bits/(Pixel*Frame)                       : 0.032
Stream size                              : 281 MiB (96%)
Writing library                          : x264 core 152 r2851kMod ba24899
Encoding settings                        : cabac=1 / ref=3 / deblock=1:0:0 / analyse=0x3:0x113 / me=hex / subme=7 / psy=1 / fade_compensate=0.00 / psy_rd=1.00:0.00 / mixed_ref=1 / me_range=16 / chroma_me=1 / trellis=1 / 8x8dct=1 / cqm=0 / deadzone=21,11 / fast_pskip=1 / chroma_qp_offset=-2 / threads=12 / lookahead_threads=2 / sliced_threads=0 / nr=0 / decimate=1 / interlaced=0 / bluray_compat=0 / constrained_intra=0 / bframes=3 / b_pyramid=2 / b_adapt=1 / b_bias=0 / direct=1 / weightb=1 / open_gop=0 / weightp=2 / keyint=250 / keyint_min=25 / scenecut=40 / intra_refresh=0 / rc_lookahead=40 / rc=abr / mbtree=1 / bitrate=1583 / ratetol=1.0 / qcomp=0.60 / qpmin=0 / qpmax=69 / qpstep=4 / ip_ratio=1.40 / aq=1:1.00
Encoded date                             : UTC 2020-05-21 01:02:50
Tagged date                              : UTC 2020-05-21 01:03:44
Codec configuration box                  : avcC

Audio
ID                                       : 2
Format                                   : AAC LC
Format/Info                              : Advanced Audio Codec Low Complexity
Codec ID                                 : mp4a-40-2
Duration                                 : 24 min 12 s
Bit rate mode                            : Variable
Bit rate                                 : 57.9 kb/s
Maximum bit rate                         : 75.7 kb/s
Channel(s)                               : 2 channels
Channel layout                           : L R
Sampling rate                            : 44.1 kHz
Frame rate                               : 43.066 FPS (1024 SPF)
Compression mode                         : Lossy
Stream size                              : 10.0 MiB (3%)
Encoded date                             : UTC 2020-05-21 00:50:17
Tagged date                              : UTC 2020-05-21 01:03:44

Other Files in this Torrent
Mob Psycho 100-05-1080p.mp4
beta
Anime DDL+NZB mirror
Current Time: 20/01/2021 09:51



About/FAQs