File Size283.0 MB (296,699,697 bytes)
DownloadAnonFiles | ClickNUpload | DropAPK | Free | MultiUp
  • BdUpload
  • DownAce
  • Fichier
  • FileCloud
  • Filerio
  • FilesCdn
  • IndiShare
  • Kbagi
  • Turbobit
  • UpToBox
  • Uppit
| Sendspace | SolidFiles | ZippyShare
HashesCRC32: AEF74539, MD5: 48428E2F430D25F03967C6F202887F58, SHA1: 81A96C535899669714851FFB463D091398C35114, SHA256: 7604FAD42EFCBA0FC798E8CF2A6CCE47D628A31DBABE6B8C0FBADF3DA4FE60E6, ED2K: 68D4CC73735F5BE4FD73CA77A6A31D14
Screenshots
screenshotscreenshotscreenshotscreenshotscreenshot
Additional Info
General
Complete name                            : Mob Psycho 100-03-1080p.mp4
Format                                   : MPEG-4
Codec ID                                 : M4V  (isom/avc1/M4A /M4V /mp42)
File size                                : 283 MiB
Duration                                 : 24 min 12 s
Overall bit rate mode                    : Variable
Overall bit rate                         : 1 635 kb/s
Encoded date                             : UTC 2020-05-21 00:37:46
Tagged date                              : UTC 2020-05-21 00:37:46

Video
ID                                       : 1
Format                                   : AVC
Format/Info                              : Advanced Video Codec
Format profile                           : High@L4
Format settings                          : CABAC / 4 Ref Frames
Format settings, CABAC                   : Yes
Format settings, ReFrames                : 4 frames
Codec ID                                 : avc1
Codec ID/Info                            : Advanced Video Coding
Duration                                 : 24 min 12 s
Bit rate                                 : 1 583 kb/s
Maximum bit rate                         : 12.5 Mb/s
Width                                    : 1 920 pixels
Height                                   : 1 080 pixels
Display aspect ratio                     : 16:9
Frame rate mode                          : Constant
Frame rate                               : 23.976 (24000/1001) FPS
Color space                              : YUV
Chroma subsampling                       : 4:2:0
Bit depth                                : 8 bits
Scan type                                : Progressive
Bits/(Pixel*Frame)                       : 0.032
Stream size                              : 272 MiB (96%)
Writing library                          : x264 core 152 r2851kMod ba24899
Encoding settings                        : cabac=1 / ref=3 / deblock=1:0:0 / analyse=0x3:0x113 / me=hex / subme=7 / psy=1 / fade_compensate=0.00 / psy_rd=1.00:0.00 / mixed_ref=1 / me_range=16 / chroma_me=1 / trellis=1 / 8x8dct=1 / cqm=0 / deadzone=21,11 / fast_pskip=1 / chroma_qp_offset=-2 / threads=12 / lookahead_threads=2 / sliced_threads=0 / nr=0 / decimate=1 / interlaced=0 / bluray_compat=0 / constrained_intra=0 / bframes=3 / b_pyramid=2 / b_adapt=1 / b_bias=0 / direct=1 / weightb=1 / open_gop=0 / weightp=2 / keyint=250 / keyint_min=25 / scenecut=40 / intra_refresh=0 / rc_lookahead=40 / rc=abr / mbtree=1 / bitrate=1583 / ratetol=1.0 / qcomp=0.60 / qpmin=0 / qpmax=69 / qpstep=4 / ip_ratio=1.40 / aq=1:1.00
Encoded date                             : UTC 2020-05-21 00:37:46
Tagged date                              : UTC 2020-05-21 00:37:57
Codec configuration box                  : avcC

Audio
ID                                       : 2
Format                                   : AAC LC
Format/Info                              : Advanced Audio Codec Low Complexity
Codec ID                                 : mp4a-40-2
Duration                                 : 24 min 12 s
Bit rate mode                            : Variable
Bit rate                                 : 57.2 kb/s
Maximum bit rate                         : 79.2 kb/s
Channel(s)                               : 2 channels
Channel layout                           : L R
Sampling rate                            : 44.1 kHz
Frame rate                               : 43.066 FPS (1024 SPF)
Compression mode                         : Lossy
Stream size                              : 9.90 MiB (3%)
Encoded date                             : UTC 2020-05-21 00:25:52
Tagged date                              : UTC 2020-05-21 00:37:57

Other Files in this Torrent
Mob Psycho 100-03-1080p.mp4
beta
Anime DDL+NZB mirror
Current Time: 20/01/2021 09:13



About/FAQs