[Miyuki-Fansubs] Mizuiro OVA2 - Selling Memorial Event [XviD] [2B5D1D8D].avi


File Size174.7 MB (183,138,304 bytes)
DownloadGo4Up | Jheberg | MultiUp | OpenLoad | Sendspace | SolidFiles | UsersCloud
HashesCRC32: 2B5D1D8D, MD5: DF832740B47E516C48504F6F542ACF38, SHA1: CAD56CC15CDB2492827464C2CE8422E870B17A1E, SHA256: D850177C384A1C76889224D9191DB07CBCF48C2E6ADD9CA12E26A190F1870533, ED2K: DBF55121563F464F35A2235DBF59E1BA
Screenshots
screenshotscreenshotscreenshotscreenshotscreenshot
Additional Info
General
Complete name                            : [Miyuki-Fansubs] Mizuiro OVA2 - Selling Memorial Event [XviD] [2B5D1D8D].avi
Format                                   : AVI
Format/Info                              : Audio Video Interleave
File size                                : 175 MiB
Duration                                 : 9 min 37 s
Overall bit rate                         : 2 537 kb/s
Writing library                          : VirtualDub build 14328/release

Video
ID                                       : 0
Format                                   : MPEG-4 Visual
Format profile                           : Simple@L3
Format settings, BVOP                    : 2
Format settings, QPel                    : No
Format settings, GMC                     : No warppoints
Format settings, Matrix                  : Default (H.263)
Codec ID                                 : XVID
Codec ID/Hint                            : XviD
Duration                                 : 9 min 37 s
Bit rate                                 : 2 400 kb/s
Width                                    : 640 pixels
Height                                   : 480 pixels
Display aspect ratio                     : 4:3
Frame rate                               : 23.976 (23976/1000) FPS
Color space                              : YUV
Chroma subsampling                       : 4:2:0
Bit depth                                : 8 bits
Scan type                                : Progressive
Compression mode                         : Lossy
Bits/(Pixel*Frame)                       : 0.326
Stream size                              : 165 MiB (95%)
Writing library                          : XviD 0.0.09 (UTC 2003-03-25)

Audio
ID                                       : 1
Format                                   : MPEG Audio
Format version                           : Version 1
Format profile                           : Layer 3
Mode                                     : Joint stereo
Mode extension                           : MS Stereo
Codec ID                                 : 55
Codec ID/Hint                            : MP3
Duration                                 : 9 min 37 s
Bit rate mode                            : Constant
Bit rate                                 : 128 kb/s
Channel(s)                               : 2 channels
Sampling rate                            : 48.0 kHz
Compression mode                         : Lossy
Stream size                              : 8.81 MiB (5%)
Alignment                                : Split accross interleaves
Interleave, duration                     : 42  ms (1.00 video frame)
Interleave, preload duration             : 500  ms
Writing library                          : LAME3.92
Encoding settings                        : -m j -V 4 -q 2 -lowpass 15.3 -b 128

Other Files in this Torrent
[Miyuki-Fansubs] Mizuiro OVA2 - Selling Memorial Event [XviD] [2B5D1D8D].avi
beta
Anime DDL+NZB mirror
Current Time: 26/02/2024 01:42



About/FAQs

Discord