File Size25.91 MB (27,167,948 bytes)
DownloadClickNUpload | Jheberg
  • 1Fichier
  • 2Giga
  • BDupload
  • ClicknUpload
  • Filerio
  • FilesCDN
  • FilesUpload
  • Free
  • Nitroflare
  • Nofile
  • Turbobit
  • Uppit
  • Uptobox
| MultiUp
  • BdUpload
  • DownAce
  • Fichier
  • FileCloud
  • Filerio
  • FilesCdn
  • IndiShare
  • Kbagi
  • Solidfiles
  • Turbobit
  • UpToBox
  • Uppit
| OpenLoad | Sendspace | ZippyShare
HashesCRC32: 132F491C, MD5: 3FEB4DC6C4EA5F1EF4EF880ED57F6FFF, SHA1: ADE97A756D524EB4F91CE534F1BC82E4C25B9922, SHA256: 59EFD745BAF72478512F9B808DBF78D63AF99857F33B6DB6ACEF5F59FF07BC3F, ED2K: 301DBD5FA1C47BD4A8D4F048C8E47173
Screenshots
screenshotscreenshotscreenshotscreenshot
SubtitlesAll Attachments | ENG [eng, ASS]
Additional Info
General
Unique ID                                : 92343437245520222130123603870201591366 (0x4578B2F7F2917CECE12BDBE107C2B646)
Complete name                            : Miru Tights #01v2.mkv
Format                                   : Matroska
Format version                           : Version 4
File size                                : 25.9 MiB
Duration                                 : 4 min 5 s
Overall bit rate                         : 886 kb/s
Movie name                               : EP01
Encoded date                             : UTC 2019-05-10 20:15:05
Writing application                      : mkvmerge v33.1.0 ('Primrose') 64-bit
Writing library                          : libebml v1.3.7 + libmatroska v1.5.0
Attachments                              : OpenSans-SemiBold.ttf

Video
ID                                       : 1
Format                                   : AVC
Format/Info                              : Advanced Video Codec
Format profile                           : High@L4
Format settings                          : CABAC / 3 Ref Frames
Format settings, CABAC                   : Yes
Format settings, ReFrames                : 3 frames
Codec ID                                 : V_MPEG4/ISO/AVC
Duration                                 : 4 min 5 s
Bit rate                                 : 685 kb/s
Width                                    : 1 920 pixels
Height                                   : 1 080 pixels
Display aspect ratio                     : 16:9
Frame rate mode                          : Constant
Frame rate                               : 23.976 (24000/1001) FPS
Color space                              : YUV
Chroma subsampling                       : 4:2:0
Bit depth                                : 8 bits
Scan type                                : Progressive
Bits/(Pixel*Frame)                       : 0.014
Stream size                              : 20.0 MiB (77%)
Title                                    : H264 H4.0
Writing library                          : x264 core 155 r2901 7d0ff22
Language                                 : Japanese
Default                                  : Yes
Forced                                   : No
Color range                              : Limited
Color primaries                          : BT.709
Transfer characteristics                 : BT.709
Matrix coefficients                      : BT.709

Audio
ID                                       : 2
Format                                   : AAC LC
Format/Info                              : Advanced Audio Codec Low Complexity
Codec ID                                 : A_AAC-2
Duration                                 : 4 min 5 s
Bit rate                                 : 192 kb/s
Channel(s)                               : 2 channels
Channel layout                           : L R
Sampling rate                            : 44.1 kHz
Frame rate                               : 43.066 FPS (1024 SPF)
Compression mode                         : Lossy
Stream size                              : 5.72 MiB (22%)
Title                                    : AAC 2.0
Language                                 : Japanese
Default                                  : Yes
Forced                                   : No

Text
ID                                       : 3
Format                                   : ASS
Codec ID                                 : S_TEXT/ASS
Codec ID/Info                            : Advanced Sub Station Alpha
Duration                                 : 2 min 38 s
Bit rate                                 : 100 b/s
Count of elements                        : 39
Compression mode                         : Lossless
Stream size                              : 1.93 KiB (0%)
Title                                    : ENG
Language                                 : English
Default                                  : Yes
Forced                                   : No
beta
Anime DDL+NZB mirror
Current Time: 17/10/2019 14:21



About/FAQs