File Size250.5 MB (262,618,078 bytes)
DownloadClickNUpload | Go4Up | Jheberg | MultiUp
  • ClickNupload
  • Fichier
  • Filerio
  • Free
  • Fufox
  • HugeFiles
  • Mightyupload
  • ToutBox
  • Turbobit
  • UpToBox
  • Uplea
  • UploadBaz
  • Uploadable
  • Uploaded
  • Uppit
  • Userscloud
| OpenLoad | Sendspace | SolidFiles
HashesCRC32: 6C95DA17, MD5: 845FB6AF259EA5DE6E350051AF5642A4, SHA1: 331A5CB40FD26F19BE39C835B0D3694F901D902A, SHA256: 6A5910B3BBF162C6B3EE059840333986C04207F47B9C526301A9FBA908742C51, ED2K: 5A8001535E124B5A4048163A44973BEA
Screenshots
screenshotscreenshotscreenshotscreenshotscreenshot
Additional Info
General
Complete name                            : [MiracleSharingan] NARUTO SHIPPÛDEN Épisode 487 [VOSTFR_Version_Pro][720p][AAC].mp4
Format                                   : MPEG-4
Format profile                           : Base Media
Codec ID                                 : isom (isom/avc1)
File size                                : 250 MiB
Duration                                 : 23 min 13 s
Overall bit rate mode                    : Variable
Overall bit rate                         : 1 507 kb/s
Encoded date                             : UTC 2017-09-07 07:36:10
Tagged date                              : UTC 2017-09-07 07:36:10

Video
ID                                       : 1
Format                                   : AVC
Format/Info                              : Advanced Video Codec
Format profile                           : High@L4.1
Format settings, CABAC                   : Yes
Format settings, ReFrames                : 4 frames
Codec ID                                 : avc1
Codec ID/Info                            : Advanced Video Coding
Duration                                 : 23 min 13 s
Bit rate mode                            : Variable
Bit rate                                 : 1 379 kb/s
Maximum bit rate                         : 40.0 Mb/s
Width                                    : 1 280 pixels
Height                                   : 720 pixels
Display aspect ratio                     : 16:9
Frame rate mode                          : Constant
Frame rate                               : 23.810 FPS
Color space                              : YUV
Chroma subsampling                       : 4:2:0
Bit depth                                : 8 bits
Scan type                                : Progressive
Bits/(Pixel*Frame)                       : 0.063
Stream size                              : 229 MiB (91%)
Title                                    : i
Writing library                          : x264 core 125 r2200 999b753
Encoding settings                        : cabac=1 / ref=3 / deblock=1:-1:-1 / analyse=0x3:0x113 / me=umh / subme=6 / psy=1 / psy_rd=1.00:0.00 / mixed_ref=1 / me_range=16 / chroma_me=1 / trellis=2 / 8x8dct=1 / cqm=0 / deadzone=21,11 / fast_pskip=1 / chroma_qp_offset=-2 / threads=12 / lookahead_threads=2 / sliced_threads=0 / nr=0 / decimate=1 / interlaced=0 / bluray_compat=0 / constrained_intra=0 / bframes=3 / b_pyramid=2 / b_adapt=2 / b_bias=0 / direct=3 / weightb=1 / open_gop=0 / weightp=2 / keyint=23 / keyint_min=1 / scenecut=40 / intra_refresh=0 / rc_lookahead=23 / rc=2pass / mbtree=1 / bitrate=1379 / ratetol=1.0 / qcomp=0.50 / qpmin=10 / qpmax=51 / qpstep=4 / cplxblur=20.0 / qblur=0.5 / vbv_maxrate=40000 / vbv_bufsize=30000 / nal_hrd=vbr / ip_ratio=1.10 / aq=1:1.00
Encoded date                             : UTC 2017-09-07 07:36:10
Tagged date                              : UTC 2017-09-07 07:36:13

Audio
ID                                       : 2
Format                                   : AAC
Format/Info                              : Advanced Audio Codec
Format profile                           : LC
Codec ID                                 : 40
Duration                                 : 23 min 13 s
Bit rate mode                            : Variable
Bit rate                                 : 126 kb/s
Maximum bit rate                         : 180 kb/s
Channel(s)                               : 2 channels
Channel positions                        : Front: L R
Sampling rate                            : 44.1 kHz
Frame rate                               : 43.066 FPS (1024 spf)
Compression mode                         : Lossy
Stream size                              : 20.9 MiB (8%)
Encoded date                             : UTC 2017-09-07 07:36:13
Tagged date                              : UTC 2017-09-07 07:36:13
beta
Anime DDL+NZB mirror
Current Time: 11/08/2020 00:14



About/FAQs