[MinEffort] Josee to Tora to Sakana-tachi (BD 1920x804 x265 10-bit Opus 2.0).mkv


File Size3.350 GB (3,596,745,272 bytes)
DownloadDownloadGG: Part1, Part2, Part3, Part4
DropAPK: Part1, Part2
MultiUp: Part1
  • BdUpload
  • DownAce
  • Fichier
  • FileCloud
  • Filerio
  • FilesCdn
  • IndiShare
  • Kbagi
  • Turbobit
  • UpToBox
  • Uppit
, Part2
  • BdUpload
  • DownAce
  • Fichier
  • FileCloud
  • Filerio
  • FilesCdn
  • IndiShare
  • Kbagi
  • Turbobit
  • UpToBox
  • Uppit
, Part3
  • BdUpload
  • DownAce
  • Fichier
  • FileCloud
  • Filerio
  • FilesCdn
  • IndiShare
  • Kbagi
  • Turbobit
  • UpToBox
  • Uppit
, Part4
  • BdUpload
  • DownAce
  • Fichier
  • FileCloud
  • Filerio
  • FilesCdn
  • IndiShare
  • Kbagi
  • Turbobit
  • UpToBox
  • Uppit
, Part5
  • BdUpload
  • DownAce
  • Fichier
  • FileCloud
  • Filerio
  • FilesCdn
  • IndiShare
  • Kbagi
  • Turbobit
  • UpToBox
  • Uppit
, Part6
  • BdUpload
  • DownAce
  • Fichier
  • FileCloud
  • Filerio
  • FilesCdn
  • IndiShare
  • Kbagi
  • Turbobit
  • UpToBox
  • Uppit
, Part7
  • BdUpload
  • DownAce
  • Fichier
  • FileCloud
  • Filerio
  • FilesCdn
  • IndiShare
  • Kbagi
  • Turbobit
  • UpToBox
  • Uppit

SolidFiles: Part1, Part2, Part3, Part4, Part5, Part6, Part7
ZippyShare: Part1, Part2, Part3, Part4, Part5, Part6, Part7
HashesCRC32: 5A3A3F55, MD5: B437A407EB124A7CCBDDC51F35ECCADB, SHA1: 296EFDDE7C713B4730EBB159B1797BA12C0F3061, SHA256: 04691F34D9EA6327087F3664F9DA3D0E13B4B543DAF1BFD890AF1A78897F4A15, ED2K: 03DCDD633F84698FFDBF6280F8D45EB7
Screenshots
screenshotscreenshotscreenshotscreenshotscreenshot
SubtitlesAll Attachments | LowEffort [eng, ASS]
Additional Info
General
Unique ID                                : 107140839478494939783406793890428713568 (0x509A9339DFD30DF1B6A4514D85897A60)
Complete name                            : [MinEffort] Josee to Tora to Sakana-tachi (BD 1920x804 x265 10-bit Opus 2.0).mkv
Format                                   : Matroska
Format version                           : Version 4
File size                                : 3.35 GiB
Duration                                 : 1 h 38 min
Overall bit rate                         : 4 884 kb/s
Encoded date                             : UTC 2021-10-04 16:59:08
Writing application                      : mkvmerge v61.0.0 ('So') 64-bit
Writing library                          : libebml v1.4.2 + libmatroska v1.6.4

Video
ID                                       : 1
Format                                   : HEVC
Format/Info                              : High Efficiency Video Coding
Format profile                           : Main 10@L4@Main
Codec ID                                 : V_MPEGH/ISO/HEVC
Duration                                 : 1 h 38 min
Bit rate                                 : 4 750 kb/s
Width                                    : 1 920 pixels
Height                                   : 804 pixels
Display aspect ratio                     : 2.40:1
Frame rate mode                          : Constant
Frame rate                               : 23.976 (24000/1001) FPS
Color space                              : YUV
Chroma subsampling                       : 4:2:0
Bit depth                                : 10 bits
Bits/(Pixel*Frame)                       : 0.128
Stream size                              : 3.26 GiB (97%)
Title                                    : BDrip by Jensen
Writing library                          : x265 3.5+20-4c4aee0bc:[DJATOM's Mod][Windows][GCC 10.2.1][64 bit] 10bit
Encoding settings                        : cpuid=1049583 / frame-threads=16 / numa-pools=24,24 / wpp / pmode / pme / no-psnr / no-ssim / log-level=2 / csv / csv-log-level=0 / input-csp=1 / input-res=1920x804 / interlace=0 / total-frames=141240 / level-idc=0 / high-tier=1 / uhd-bd=0 / ref=4 / no-allow-non-conformance / no-repeat-headers / annexb / no-aud / no-hrd / info / hash=0 / no-temporal-layers / open-gop / min-keyint=23 / keyint=240 / gop-lookahead=0 / bframes=8 / b-adapt=2 / b-pyramid / bframe-bias=0 / rc-lookahead=20 / lookahead-slices=5 / scenecut=40 / hist-scenecut=0 / radl=0 / no-splice / no-intra-refresh / ctu=64 / min-cu-size=8 / no-rect / no-amp / max-tu-size=32 / tu-inter-depth=2 / tu-intra-depth=2 / limit-tu=0 / rdoq-level=2 / dynamic-rd=0.00 / no-ssim-rd / signhide / no-tskip / nr-intra=0 / nr-inter=0 / no-constrained-intra / no-strong-intra-smoothing / max-merge=5 / limit-refs=0 / no-limit-modes / me=3 / subme=7 / merange=57 / temporal-mvp / no-frame-dup / no-hme / weightp / weightb / analyze-src-pics / deblock=1:-1 / no-sao / no-sao-non-deblock / rd=5 / selective-sao=0 / no-early-skip / no-rskip / no-fast-intra / no-tskip-fast / no-cu-lossless / b-intra / no-splitrd-skip / rdpenalty=0 / psy-rd=2.00 / psy-rdoq=4.00 / no-rd-refine / no-lossless / cbqpoffs=-2 / crqpoffs=-2 / rc=crf / crf=15.0 / qcomp=0.72 / qpstep=4 / stats-write=0 / stats-read=0 / ipratio=1.40 / pbratio=1.30 / aq-mode=3 / aq-strength=1.03 / no-cutree / zone-count=0 / no-strict-cbr / qg-size=32 / no-rc-grain / qpmax=69 / qpmin=0 / no-const-vbv / sar=0 / overscan=0 / videoformat=5 / range=0 / colorprim=1 / transfer=1 / colormatrix=1 / chromaloc=0 / display-window=0 / cll=0,0 / min-luma=0 / max-luma=1023 / log2-max-poc-lsb=8 / vui-timing-info / vui-hrd-info / slices=1 / no-opt-qp-pps / no-opt-ref-list-length-pps / no-multi-pass-opt-rps / scenecut-bias=0.05 / hist-threshold=0.03 / no-opt-cu-delta-qp / no-aq-motion / no-hdr10 / no-hdr10-opt / no-dhdr10-opt / no-idr-recovery-sei / analysis-reuse-level=0 / analysis-save-reuse-level=0 / analysis-load-reuse-level=0 / scale-factor=0 / refine-intra=4 / refine-inter=0 / refine-mv=3 / refine-ctu-distortion=0 / no-limit-sao / ctu-info=0 / no-lowpass-dct / refine-analysis-type=0 / copy-pic=1 / max-ausize-factor=1.0 / dynamic-refine / no-single-sei / no-hevc-aq / no-svt / no-field / qp-adaptation-range=4.00 / scenecut-aware-qp=0conformance-window-offsets / right=0 / bottom=0 / decoder-max-rate=0 / no-vbv-live-multi-pass
Language                                 : Japanese
Default                                  : Yes
Forced                                   : No
Color range                              : Limited
Color primaries                          : BT.709
Transfer characteristics                 : BT.709
Matrix coefficients                      : BT.709

Audio
ID                                       : 2
Format                                   : Opus
Codec ID                                 : A_OPUS
Duration                                 : 1 h 38 min
Bit rate                                 : 124 kb/s
Channel(s)                               : 2 channels
Channel layout                           : L R
Sampling rate                            : 48.0 kHz
Frame rate                               : 50.000 FPS (960 SPF)
Compression mode                         : Lossy
Stream size                              : 86.9 MiB (3%)
Writing library                          : Opus 1.3.1
Language                                 : Japanese
Default                                  : Yes
Forced                                   : No
ENCODER_OPTIONS                          : --bitrate 128

Text
ID                                       : 3
Format                                   : ASS
Codec ID                                 : S_TEXT/ASS
Codec ID/Info                            : Advanced Sub Station Alpha
Duration                                 : 1 h 37 min
Bit rate                                 : 6 990 b/s
Count of elements                        : 18899
Compression mode                         : Lossless
Stream size                              : 4.89 MiB (0%)
Title                                    : LowEffort
Language                                 : English
Default                                  : Yes
Forced                                   : No

Menu
00:00:00.000                             : Avant
00:02:25.520                             : Part A
00:14:01.674                             : Part B
00:26:55.322                             : Part C
00:38:08.328                             : Part D
00:48:01.462                             : Part E
01:00:20.116                             : Part F
01:12:06.989                             : Part G
01:21:10.699                             : Part H
01:32:32.338                             : ED
01:37:18.624                             : Epilog
beta
Anime DDL+NZB mirror
Current Time: 27/09/2022 16:52



About/FAQs

Discord