File Size299.4 MB (313,980,419 bytes)
DownloadClickNUpload | DailyUploads | DownloadGG | GoFile | KrakenFiles | MdiaLoad | MultiUp
  • BdUpload
  • DownAce
  • Fichier
  • FileCloud
  • Filerio
  • FilesCdn
  • IndiShare
  • Kbagi
  • Turbobit
  • UpToBox
  • Uppit
| Uppit
HashesCRC32: ED59E6EA, MD5: 1564BEA77D63AA746241705E90CD6F28, SHA1: 815AA1A57073C958143C95A80183D94D9FC487DB, SHA256: 0A4917BF733F212538CAE2CC411B9569CFC5371657BCBE0ECCF3FD342EA708B2, ED2K: 839C2B081D9D57183BCE4748F0D0DFD9
Screenshots
screenshotscreenshotscreenshotscreenshotscreenshot
SubtitlesAll Attachments | English [eng, ASS]
Additional Info
General
Unique ID                                : 21519264723409825350490093893666070120 (0x103075AA63F0E6248C0080E773E5DE68)
Complete name                            : [MahjongSoulless] Pon no Michi - 10 (1080p) [CR15TM45].mkv
Format                                   : Matroska
Format version                           : Version 4
File size                                : 299 MiB
Duration                                 : 24 min 12 s
Overall bit rate                         : 1 730 kb/s
Frame rate                               : 23.976 FPS
Movie name                               : [MahjongSoulless] Pon no Michi - 10 (1080p) [CR15TM45]
Encoded date                             : 2024-03-15 16:50:28 UTC
Writing application                      : mkvmerge v82.0 ('I'm The President') 64-bit
Writing library                          : libebml v1.4.5 + libmatroska v1.7.1
Attachments                              : ROBOTO-MEDIUM.TTF / COOPERBLACKSTD.OTF / KOZGOPRO-HEAVY.OTF / MICKEYS MERRY CHRISTMAS.TTF / CHRISTMASMOMENTS-MLOBX.TTF

Video
ID                                       : 1
Format                                   : AVC
Format/Info                              : Advanced Video Codec
Format profile                           : Main@L4
Format settings                          : CABAC / 4 Ref Frames
Format settings, CABAC                   : Yes
Format settings, Reference frames        : 4 frames
Codec ID                                 : V_MPEG4/ISO/AVC
Duration                                 : 24 min 11 s
Bit rate                                 : 1 542 kb/s
Width                                    : 1 920 pixels
Height                                   : 1 080 pixels
Display aspect ratio                     : 16:9
Frame rate mode                          : Constant
Frame rate                               : 23.976 (24000/1001) FPS
Color space                              : YUV
Chroma subsampling                       : 4:2:0
Bit depth                                : 8 bits
Scan type                                : Progressive
Bits/(Pixel*Frame)                       : 0.031
Stream size                              : 267 MiB (89%)
Title                                    : Cartoons
Writing library                          : x264 core 164 r3107 a8b68ebf
Encoding settings                        : cabac=1 / ref=2 / deblock=1:0:0 / analyse=0x1:0x111 / me=hex / subme=6 / psy=1 / psy_rd=1.00:0.00 / mixed_ref=1 / me_range=16 / chroma_me=1 / trellis=1 / 8x8dct=0 / cqm=0 / deadzone=21,11 / fast_pskip=1 / chroma_qp_offset=-2 / threads=18 / lookahead_threads=3 / sliced_threads=0 / nr=0 / decimate=1 / interlaced=0 / bluray_compat=0 / constrained_intra=0 / bframes=3 / b_pyramid=2 / b_adapt=1 / b_bias=0 / direct=1 / weightb=1 / open_gop=0 / weightp=1 / keyint=240 / keyint_min=24 / scenecut=40 / intra_refresh=0 / rc_lookahead=30 / rc=crf / mbtree=1 / crf=22.0 / qcomp=0.60 / qpmin=0 / qpmax=69 / qpstep=4 / vbv_maxrate=20000 / vbv_bufsize=25000 / crf_max=0.0 / nal_hrd=none / filler=0 / ip_ratio=1.40 / aq=1:1.00
Language                                 : Chinese
Default                                  : Yes
Forced                                   : No
Color range                              : Limited
Color primaries                          : BT.709
Transfer characteristics                 : BT.709
Matrix coefficients                      : BT.709

Audio
ID                                       : 2
Format                                   : AAC LC
Format/Info                              : Advanced Audio Codec Low Complexity
Codec ID                                 : A_AAC-2
Duration                                 : 24 min 12 s
Bit rate                                 : 162 kb/s
Channel(s)                               : 2 channels
Channel layout                           : L R
Sampling rate                            : 48.0 kHz
Frame rate                               : 46.875 FPS (1024 SPF)
Compression mode                         : Lossy
Stream size                              : 28.1 MiB (9%)
Title                                    : Stereo
Language                                 : Japanese
Default                                  : Yes
Forced                                   : No

Text
ID                                       : 3
Format                                   : ASS
Codec ID                                 : S_TEXT/ASS
Codec ID/Info                            : Advanced Sub Station Alpha
Duration                                 : 24 min 2 s
Bit rate                                 : 165 b/s
Frame rate                               : 0.325 FPS
Count of elements                        : 469
Compression mode                         : Lossless
Stream size                              : 29.2 KiB (0%)
Title                                    : English
Language                                 : English
Default                                  : Yes
Forced                                   : No
beta
Anime DDL+NZB mirror
Current Time: 14/06/2024 20:00



About/FAQs

Discord