File Size689.2 MB (722,690,708 bytes)
DownloadAnonFiles | ClickNUpload | DropAPK | Free
MultiUp: Part1
  • BdUpload
  • DownAce
  • Fichier
  • FileCloud
  • Filerio
  • FilesCdn
  • IndiShare
  • Kbagi
  • Turbobit
  • UpToBox
  • Uppit
, Part2
  • BdUpload
  • DownAce
  • Fichier
  • FileCloud
  • Filerio
  • FilesCdn
  • IndiShare
  • Kbagi
  • Turbobit
  • UpToBox
  • Uppit

Sendspace: Part1, Part2, Part3
SolidFiles: Part1, Part2
ZippyShare: Part1, Part2
HashesCRC32: 532267D5, MD5: 4B17B54BE29608960862DEA101CB3B9D, SHA1: D0F31E89A10D0A5AF4EA10E441745B70FBCE44B6, SHA256: 0E08845BF112A080070DE14CF1DA124E0F03EF5091C2F0D93433BDCBC87853B2, ED2K: 5CD80C2980EB9BD97D41B5347A59174D
Screenshots
screenshotscreenshotscreenshotscreenshotscreenshot
SubtitlesAll Attachments | Signs & Songs (Doki, SSA) [eng, ASS], Subtitles (Doki, SSA) [eng, ASS], Subtitles (FUNimation, SRT) [eng, SRT]
Additional Info
General
Unique ID                                : 63883932221415407533634197101826682954 (0x300F99099EC67FB1E0C50393268A304A)
Complete name                            : Magia Record Puella Magi Madoka Magica Side Story - 09 (720p FUNI WEB-DL Dual Audio -KS-).mkv
Format                                   : Matroska
Format version                           : Version 4
File size                                : 689 MiB
Duration                                 : 23 min 50 s
Overall bit rate                         : 4 043 kb/s
Encoded date                             : UTC 2020-04-18 20:16:25
Writing application                      : mkvmerge v45.0.0 ('Heaven in Pennies') 64-bit
Writing library                          : libebml v1.3.10 + libmatroska v1.5.2
Attachments                              : Nyashi.otf / VestaPro-Bold.otf / VestaPro-BoldItalic.otf / Albertus MT Std Regular.otf / ArialRoundedMTStd-ExtraBold.otf / ARLRDBD.TTF / ARNORG.TTF / Avril.ttf / batang.ttc / BinaryITC TT Light.ttf / BPreplayBold.otf / font_1_kokumr_1.00_rls.ttf / font25.ttf / fsex2p00_public.ttf

Video
ID                                       : 1
Format                                   : AVC
Format/Info                              : Advanced Video Codec
Format profile                           : Main@L3.1
Format settings                          : CABAC / 4 Ref Frames
Format settings, CABAC                   : Yes
Format settings, ReFrames                : 4 frames
Codec ID                                 : V_MPEG4/ISO/AVC
Duration                                 : 23 min 50 s
Bit rate                                 : 3 281 kb/s
Width                                    : 1 280 pixels
Height                                   : 720 pixels
Display aspect ratio                     : 16:9
Frame rate mode                          : Constant
Frame rate                               : 23.976 (24000/1001) FPS
Color space                              : YUV
Chroma subsampling                       : 4:2:0
Bit depth                                : 8 bits
Scan type                                : Progressive
Bits/(Pixel*Frame)                       : 0.149
Stream size                              : 559 MiB (81%)
Title                                    : FUNI WEB-DL (Simulcast)
Language                                 : Japanese
Default                                  : Yes
Forced                                   : No

Audio #1
ID                                       : 2
Format                                   : AAC LC
Format/Info                              : Advanced Audio Codec Low Complexity
Codec ID                                 : A_AAC-2
Duration                                 : 23 min 50 s
Bit rate                                 : 253 kb/s
Channel(s)                               : 2 channels
Channel layout                           : L R
Sampling rate                            : 48.0 kHz
Frame rate                               : 46.875 FPS (1024 SPF)
Compression mode                         : Lossy
Stream size                              : 43.2 MiB (6%)
Title                                    : English (2.0 AAC)
Language                                 : English
Default                                  : Yes
Forced                                   : No

Audio #2
ID                                       : 3
Format                                   : AAC LC
Format/Info                              : Advanced Audio Codec Low Complexity
Codec ID                                 : A_AAC-2
Duration                                 : 23 min 50 s
Bit rate                                 : 253 kb/s
Channel(s)                               : 2 channels
Channel layout                           : L R
Sampling rate                            : 48.0 kHz
Frame rate                               : 46.875 FPS (1024 SPF)
Compression mode                         : Lossy
Delay relative to video                  : 21 ms
Stream size                              : 43.2 MiB (6%)
Title                                    : Japanese (2.0 AAC)
Language                                 : Japanese
Default                                  : No
Forced                                   : No

Text #1
ID                                       : 4
Format                                   : ASS
Codec ID                                 : S_TEXT/ASS
Codec ID/Info                            : Advanced Sub Station Alpha
Duration                                 : 23 min 9 s
Bit rate                                 : 48.2 kb/s
Count of elements                        : 6666
Compression mode                         : Lossless
Stream size                              : 7.99 MiB (1%)
Title                                    : Signs & Songs (Doki, SSA)
Language                                 : English
Default                                  : Yes
Forced                                   : No

Text #2
ID                                       : 5
Format                                   : ASS
Codec ID                                 : S_TEXT/ASS
Codec ID/Info                            : Advanced Sub Station Alpha
Duration                                 : 23 min 45 s
Bit rate                                 : 47.2 kb/s
Count of elements                        : 7003
Compression mode                         : Lossless
Stream size                              : 8.03 MiB (1%)
Title                                    : Subtitles (Doki, SSA)
Language                                 : English
Default                                  : No
Forced                                   : No

Text #3
ID                                       : 6
Format                                   : UTF-8
Codec ID                                 : S_TEXT/UTF8
Codec ID/Info                            : UTF-8 Plain Text
Duration                                 : 23 min 45 s
Bit rate                                 : 54 b/s
Count of elements                        : 295
Stream size                              : 9.48 KiB (0%)
Title                                    : Subtitles (FUNimation, SRT)
Language                                 : English
Default                                  : No
Forced                                   : No

Menu
00:00:00.000                             : ja:Prologue
00:00:41.029                             : ja:OP
00:02:10.989                             : ja:Part A
00:14:35.029                             : ja:Part B
00:21:42.039                             : ja:ED
00:23:11.999                             : ja:Epilogue
00:23:35.029                             : ja:Random Screenshot
00:23:45.039                             : ja:Endcard
beta
Anime DDL+NZB mirror
Current Time: 11/08/2020 00:33



About/FAQs