[LostYears] Violet Evergarden (WEB 1080p Hi10 EAC3-AAC) [8FF2BD8B].mkv


File Size636.5 MB (667,459,280 bytes)
DownloadClickNUpload | Go4Up | Jheberg
  • 1Fichier
  • FileCloud
  • Free
  • Jeodrive
  • Openload
  • Rockfile
  • Turbobit
  • Tusfiles
  • UpToBox
  • UploadedTo
| MultiUp | OpenLoad | Upfile.mobi
Sendspace: Part1, Part2, Part3
SolidFiles: Part1, Part2
Encrypted DownloadDirect
Password:
HashesCRC32: 8FF2BD8B, MD5: 77E965135618058F9292E0A497B851FA, SHA1: B4DF8A4D5750E712A9FB57399D81C13ECA7DA1F1, SHA256: 789DFC77448A55FE5F202C8BB8B4034E4098C89049C2754A912C1869E8921E82, ED2K: 3BEB875935C95A25F0FFB21DB5E19ECC
Screenshots
screenshotscreenshotscreenshotscreenshotscreenshot
SubtitlesAll Attachments | Signs & Songs [Vivid-Asenshi Edit] [eng, ASS], Full Subtitles [Vivid-Asenshi] [eng, ASS]
Additional Info
General
Unique ID                                : 203836290621742597657200916779287600457 (0x9959710BC9C60325AAD7EC73BB9E5D49)
Complete name                            : [LostYears] Violet Evergarden (WEB 1080p Hi10 EAC3-AAC) [8FF2BD8B].mkv
Format                                   : Matroska
Format version                           : Version 4 / Version 2
File size                                : 637 MiB
Duration                                 : 24 min 1 s
Overall bit rate                         : 3 703 kb/s
Encoded date                             : UTC 2018-01-11 17:45:47
Writing application                      : mkvmerge v17.0.0 ('Be Ur Friend') 64-bit
Writing library                          : libebml v1.3.5 + libmatroska v1.4.8
Attachments                              : FOT-KleePro-DB-Str.otf / IwaMinPro-Md-Kami.ttf / Cabin-Bold.otf / Cabin-BoldItalic.otf

Video
ID                                       : 1
Format                                   : AVC
Format/Info                              : Advanced Video Codec
Format profile                           : High 10@L5.1
Format settings, CABAC                   : Yes
Format settings, ReFrames                : 16 frames
Codec ID                                 : V_MPEG4/ISO/AVC
Duration                                 : 23 min 39 s
Bit rate                                 : 3 372 kb/s
Width                                    : 1 920 pixels
Height                                   : 1 080 pixels
Display aspect ratio                     : 16:9
Frame rate mode                          : Constant
Frame rate                               : 23.976 (24000/1001) FPS
Color space                              : YUV
Chroma subsampling                       : 4:2:0
Bit depth                                : 10 bits
Scan type                                : Progressive
Bits/(Pixel*Frame)                       : 0.068
Stream size                              : 571 MiB (90%)
Writing library                          : x264 core 148 r2762+56 7979737 t_mod_Custom [10-bit@all X86_64]
Encoding settings                        : cabac=1 / ref=16 / deblock=1:0:0 / analyse=0x3:0x133 / me=umh / subme=10 / psy=1 / fade_compensate=0.80 / psy_rd=0.85:0.00 / mixed_ref=1 / me_range=24 / chroma_me=1 / trellis=2 / 8x8dct=1 / cqm=0 / deadzone=21,11 / fast_pskip=1 / chroma_qp_offset=-2 / threads=12 / lookahead_threads=3 / sliced_threads=0 / nr=0 / decimate=1 / interlaced=0 / bluray_compat=0 / constrained_intra=0 / fgo=0 / bframes=16 / b_pyramid=2 / b_adapt=2 / b_bias=0 / direct=3 / weightb=1 / open_gop=0 / weightp=2 / keyint=250 / keyint_min=23 / scenecut=40 / intra_refresh=0 / rc_lookahead=60 / rc=crf / mbtree=1 / crf=16.3000 / qcomp=0.65 / qpmin=0:0:0 / qpmax=81:81:81 / qpstep=4 / ip_ratio=1.40 / aq=3:0.80 / aq-sensitivity=10.00 / aq-factor=1.00:1.00:1.00 / aq2=0 / aq3=0
Language                                 : English
Default                                  : Yes
Forced                                   : No
Color range                              : Limited
Matrix coefficients                      : BT.709

Audio #1
ID                                       : 2
Format                                   : E-AC-3
Format/Info                              : Enhanced Audio Coding 3
Format settings, Endianness              : Big
Codec ID                                 : A_EAC3
Duration                                 : 24 min 1 s
Bit rate mode                            : Constant
Bit rate                                 : 128 kb/s
Channel(s)                               : 2 channels
Channel positions                        : Front: L R
Sampling rate                            : 48.0 kHz
Frame rate                               : 187.500 FPS (256 spf)
Compression mode                         : Lossy
Delay relative to video                  : 28 ms
Stream size                              : 22.0 MiB (3%)
Title                                    : English
Language                                 : English
Default                                  : Yes
Forced                                   : No

Audio #2
ID                                       : 3
Format                                   : AAC
Format/Info                              : Advanced Audio Codec
Format profile                           : LC
Codec ID                                 : A_AAC
Duration                                 : 23 min 39 s
Bit rate                                 : 252 kb/s
Channel(s)                               : 2 channels
Channel positions                        : Front: L R
Sampling rate                            : 48.0 kHz
Frame rate                               : 46.875 FPS (1024 spf)
Compression mode                         : Lossy
Stream size                              : 42.7 MiB (7%)
Title                                    : Japanese
Language                                 : Japanese
Default                                  : No
Forced                                   : No

Text #1
ID                                       : 4
Format                                   : ASS
Codec ID                                 : S_TEXT/ASS
Codec ID/Info                            : Advanced Sub Station Alpha
Duration                                 : 21 min 1 s
Bit rate                                 : 7 b/s
Count of elements                        : 7
Compression mode                         : Lossless
Stream size                              : 1.14 KiB (0%)
Title                                    : Signs & Songs [Vivid-Asenshi Edit]
Language                                 : English
Default                                  : Yes
Forced                                   : No

Text #2
ID                                       : 5
Format                                   : ASS
Codec ID                                 : S_TEXT/ASS
Codec ID/Info                            : Advanced Sub Station Alpha
Duration                                 : 23 min 16 s
Bit rate                                 : 105 b/s
Count of elements                        : 339
Compression mode                         : Lossless
Stream size                              : 17.9 KiB (0%)
Title                                    : Full Subtitles [Vivid-Asenshi]
Language                                 : English
Default                                  : No
Forced                                   : No

Menu
00:00:00.000                             : :Intro
00:02:34.946                             : :Part A
00:12:00.929                             : :Part B
beta
Anime DDL+NZB mirror
Current Time: 09/04/2020 20:22



About/FAQs