[LostYears] Uzaki-chan Wants to Hang Out! - 08 (WEB 1080p x264 AAC) [EBAAFB6C].mkv


File Size1.385 GB (1,487,053,438 bytes)
DownloadAnonFiles | ClickNUpload | DropAPK
Free: Part1, Part2
MultiUp: Part1
  • BdUpload
  • DownAce
  • Fichier
  • FileCloud
  • Filerio
  • FilesCdn
  • IndiShare
  • Kbagi
  • Turbobit
  • UpToBox
  • Uppit
, Part2
  • BdUpload
  • DownAce
  • Fichier
  • FileCloud
  • Filerio
  • FilesCdn
  • IndiShare
  • Kbagi
  • Turbobit
  • UpToBox
  • Uppit
, Part3
  • BdUpload
  • DownAce
  • Fichier
  • FileCloud
  • Filerio
  • FilesCdn
  • IndiShare
  • Kbagi
  • Turbobit
  • UpToBox
  • Uppit

Sendspace: Part1, Part2, Part3, Part4, Part5
SolidFiles: Part1, Part2, Part3
ZippyShare: Part1, Part2, Part3
HashesCRC32: EBAAFB6C, MD5: 990B73DB36100AB189D60472E2AA5523, SHA1: EF5B39990990E6EF0966C2DD02520A87DA1AA3BF, SHA256: 253506B48FAF4CE1C02154F10D292E7487D964560666F3C35E7418075C8F49D4, ED2K: 39A391335670BB27CAFF4DFEA9229361
Screenshots
screenshotscreenshotscreenshotscreenshotscreenshot
SubtitlesAll Attachments | Signs & Songs [zxx, ASS], Full Subtitles [senpai] [eng, ASS]
Additional Info
General
Unique ID                                : 758758916651614641862012565589876914 (0x9221B3EEEFF44B0500B9B29C0C60B2)
Complete name                            : [LostYears] Uzaki-chan Wants to Hang Out! - 08 (WEB 1080p x264 AAC) [EBAAFB6C].mkv
Format                                   : Matroska
Format version                           : Version 4
File size                                : 1.38 GiB
Duration                                 : 23 min 50 s
Overall bit rate                         : 8 319 kb/s
Encoded date                             : UTC 2020-11-06 17:45:45
Writing application                      : mkvmerge v51.0.0 ('I Wish') 64-bit
Writing library                          : libebml v1.4.0 + libmatroska v1.6.2
Attachments                              : AvalonTypeBold.ttf / cracj__.ttf / KozGoPr6N-Bold.otf / KozGoPr6N-Medium.otf / Merchant Copy.ttf / Nokia Standard Multiscript.ttf / NOKIAFONTYANTI.TTF / poo.TTF / PPETRIAL.otf / Aji_Hand.ttf / ARBERKLEY.ttf

Video
ID                                       : 1
Format                                   : AVC
Format/Info                              : Advanced Video Codec
Format profile                           : High@L4
Format settings                          : CABAC / 4 Ref Frames
Format settings, CABAC                   : Yes
Format settings, ReFrames                : 4 frames
Codec ID                                 : V_MPEG4/ISO/AVC
Duration                                 : 23 min 49 s
Bit rate                                 : 8 000 kb/s
Width                                    : 1 920 pixels
Height                                   : 1 080 pixels
Display aspect ratio                     : 16:9
Frame rate mode                          : Constant
Frame rate                               : 23.976 (24000/1001) FPS
Color space                              : YUV
Chroma subsampling                       : 4:2:0
Bit depth                                : 8 bits
Scan type                                : Progressive
Bits/(Pixel*Frame)                       : 0.161
Stream size                              : 1.27 GiB (92%)
Title                                    : Erai-raws
Writing library                          : x264 core 157 r2948 dada181
Encoding settings                        : cabac=1 / ref=1 / deblock=1:0:0 / analyse=0x3:0x113 / me=hex / subme=7 / psy=1 / psy_rd=1.00:0.00 / mixed_ref=0 / me_range=16 / chroma_me=1 / trellis=1 / 8x8dct=1 / cqm=0 / deadzone=21,11 / fast_pskip=1 / chroma_qp_offset=-2 / threads=24 / lookahead_threads=4 / sliced_threads=0 / nr=0 / decimate=1 / interlaced=0 / bluray_compat=0 / constrained_intra=0 / bframes=2 / b_pyramid=2 / b_adapt=1 / b_bias=0 / direct=1 / weightb=1 / open_gop=0 / weightp=2 / keyint=48 / keyint_min=4 / scenecut=40 / intra_refresh=0 / rc_lookahead=40 / rc=cbr / mbtree=1 / bitrate=8000 / ratetol=1.0 / qcomp=0.60 / qpmin=0 / qpmax=69 / qpstep=4 / vbv_maxrate=8000 / vbv_bufsize=24000 / nal_hrd=none / filler=0 / ip_ratio=1.40 / aq=1:1.00
Language                                 : Japanese
Default                                  : Yes
Forced                                   : No

Audio #1
ID                                       : 2
Format                                   : AAC LC
Format/Info                              : Advanced Audio Codec Low Complexity
Codec ID                                 : A_AAC-2
Duration                                 : 23 min 50 s
Bit rate                                 : 253 kb/s
Channel(s)                               : 2 channels
Channel layout                           : L R
Sampling rate                            : 48.0 kHz
Frame rate                               : 46.875 FPS (1024 SPF)
Compression mode                         : Lossy
Delay relative to video                  : -43 ms
Stream size                              : 43.2 MiB (3%)
Title                                    : English
Language                                 : English
Default                                  : Yes
Forced                                   : No

Audio #2
ID                                       : 3
Format                                   : AAC LC
Format/Info                              : Advanced Audio Codec Low Complexity
Codec ID                                 : A_AAC-2
Duration                                 : 23 min 50 s
Bit rate                                 : 253 kb/s
Channel(s)                               : 2 channels
Channel layout                           : L R
Sampling rate                            : 48.0 kHz
Frame rate                               : 46.875 FPS (1024 SPF)
Compression mode                         : Lossy
Delay relative to video                  : -43 ms
Stream size                              : 43.2 MiB (3%)
Title                                    : Japanese
Language                                 : Japanese
Default                                  : No
Forced                                   : No

Text #1
ID                                       : 4
Format                                   : ASS
Codec ID                                 : S_TEXT/ASS
Codec ID/Info                            : Advanced Sub Station Alpha
Duration                                 : 21 min 46 s
Bit rate                                 : 18 b/s
Count of elements                        : 25
Compression mode                         : Lossless
Stream size                              : 2.91 KiB (0%)
Title                                    : Signs & Songs
Language                                 : zxx
Default                                  : Yes
Forced                                   : Yes

Text #2
ID                                       : 5
Format                                   : ASS
Codec ID                                 : S_TEXT/ASS
Codec ID/Info                            : Advanced Sub Station Alpha
Duration                                 : 23 min 30 s
Bit rate                                 : 126 b/s
Count of elements                        : 332
Compression mode                         : Lossless
Stream size                              : 21.7 KiB (0%)
Title                                    : Full Subtitles [senpai]
Language                                 : English
Default                                  : No
Forced                                   : No

Menu
00:00:00.000                             : en:Intro
00:01:46.023                             : en:OP
00:03:15.987                             : en:Main
00:22:04.949                             : en:ED
00:23:34.950                             : en:Preview

Other Files in this Torrent
[LostYears] Uzaki-chan Wants to Hang Out! - 08 (WEB 1080p x264 AAC) [EBAAFB6C].mkv
beta
Anime DDL+NZB mirror
Current Time: 20/04/2021 18:48



About/FAQs