[LostYears] That Time I Got Reincarnated as a Slime - 24.5 (Recap) (WEB 810p x264 10-bit AAC) [C197462A].mkv


File Size602.3 MB (631,605,368 bytes)
DownloadClickNUpload | Jheberg | OpenLoad
MultiUp: Part1
  • BdUpload
  • DownAce
  • Fichier
  • FileCloud
  • Filerio
  • FilesCdn
  • IndiShare
  • Kbagi
  • Solidfiles
  • Turbobit
  • UpToBox
  • Uppit
, Part2
  • BdUpload
  • DownAce
  • Fichier
  • FileCloud
  • Filerio
  • FilesCdn
  • IndiShare
  • Kbagi
  • Solidfiles
  • Turbobit
  • UpToBox
  • Uppit

Sendspace: Part1, Part2, Part3
ZippyShare: Part1, Part2
HashesCRC32: C197462A, MD5: 12462DC16F67FE18F2A41E47026FE146, SHA1: 188541BFB0B871EF670F7DD800F0135D65E76284, SHA256: 1DFE819F7B6266CA0498D9DA5962BE0A8BAE7818B95CDC54685826C38BC1F07A, ED2K: DCA1533305AEF80894FB682D8BEA5812
Screenshots
screenshotscreenshotscreenshotscreenshotscreenshot
SubtitlesAll Attachments | Signs & Songs [LostYears] [zxx, ASS], Full Subtitles [LostYears] [eng, ASS]
Additional Info
General
Unique ID                                : 210456060663401194091428748584148556388 (0x9E545CE863095A03DB6F602D0EEC5A64)
Complete name                            : [LostYears] That Time I Got Reincarnated as a Slime - 24.5 (Recap) (WEB 810p x264 10-bit AAC) [C197462A].mkv
Format                                   : Matroska
Format version                           : Version 4
File size                                : 602 MiB
Duration                                 : 23 min 44 s
Overall bit rate                         : 3 548 kb/s
Movie name                               : That Time I Got Reincarnated as a Slime - 24.5 - "S1 Recap: Veldora`s Journal"
Encoded date                             : UTC 2019-05-16 20:23:02
Writing application                      : mkvmerge v25.0.0 ('Prog Noir') 64-bit
Writing library                          : libebml v1.3.6 + libmatroska v1.4.9
Attachments                              : Abbey Md_PFLNormal.ttf / ADHOC_0.TTF / arial_0.ttf / ASAP-BOLD.TTF / Brush Strokes.ttf / CALISTB.TTF / chapters.xml / GARABD.TTF / GenBasB.ttf / GenBkBasB.ttf / Iwata Mincho Old ProEn HRegular.ttf / LT.ttf / LT_italic.ttf / MinionPro-Medium.otf

Video
ID                                       : 1
Format                                   : AVC
Format/Info                              : Advanced Video Codec
Format profile                           : High 10@L5
Format settings                          : CABAC / 9 Ref Frames
Format settings, CABAC                   : Yes
Format settings, ReFrames                : 9 frames
Codec ID                                 : V_MPEG4/ISO/AVC
Duration                                 : 23 min 44 s
Bit rate                                 : 3 110 kb/s
Width                                    : 1 440 pixels
Height                                   : 810 pixels
Display aspect ratio                     : 16:9
Frame rate mode                          : Constant
Frame rate                               : 23.976 (24000/1001) FPS
Color space                              : YUV
Chroma subsampling                       : 4:2:0
Bit depth                                : 10 bits
Scan type                                : Progressive
Bits/(Pixel*Frame)                       : 0.111
Stream size                              : 528 MiB (88%)
Title                                    : WEB 810p x264 10-bit [LostYears]
Writing library                          : x264 core 148 r2721kMod 72d53ab
Encoding settings                        : cabac=1 / ref=9 / deblock=1:-1:-1 / analyse=0x3:0x133 / me=umh / subme=10 / psy=1 / fade_compensate=0.00 / psy_rd=0.85:0.00 / mixed_ref=1 / me_range=24 / chroma_me=1 / trellis=2 / 8x8dct=1 / cqm=0 / deadzone=21,11 / fast_pskip=0 / chroma_qp_offset=-2 / threads=12 / lookahead_threads=2 / sliced_threads=0 / nr=0 / decimate=0 / interlaced=0 / bluray_compat=0 / constrained_intra=0 / fgo=0 / bframes=9 / b_pyramid=2 / b_adapt=2 / b_bias=0 / direct=3 / weightb=1 / open_gop=0 / weightp=2 / keyint=240 / keyint_min=23 / scenecut=40 / intra_refresh=0 / rc_lookahead=60 / rc=crf / mbtree=1 / crf=16.3000 / qcomp=0.80 / qpmin=0 / qpmax=66 / qpstep=4 / ip_ratio=1.10 / aq=3:0.80
Language                                 : Japanese
Default                                  : Yes
Forced                                   : No
Color range                              : Limited
Matrix coefficients                      : BT.709

Audio #1
ID                                       : 2
Format                                   : AAC LC
Format/Info                              : Advanced Audio Codec Low Complexity
Codec ID                                 : A_AAC-2
Duration                                 : 23 min 44 s
Bit rate                                 : 253 kb/s
Channel(s)                               : 2 channels
Channel layout                           : L R
Sampling rate                            : 48.0 kHz
Frame rate                               : 46.875 FPS (1024 SPF)
Compression mode                         : Lossy
Delay relative to video                  : 7 ms
Stream size                              : 43.0 MiB (7%)
Title                                    : English 2ch
Language                                 : English
Default                                  : Yes
Forced                                   : No

Audio #2
ID                                       : 3
Format                                   : AAC LC
Format/Info                              : Advanced Audio Codec Low Complexity
Codec ID                                 : A_AAC-2
Duration                                 : 23 min 44 s
Bit rate                                 : 128 kb/s
Channel(s)                               : 2 channels
Channel layout                           : L R
Sampling rate                            : 44.1 kHz
Frame rate                               : 43.066 FPS (1024 SPF)
Compression mode                         : Lossy
Stream size                              : 21.7 MiB (4%)
Title                                    : Japanese 2ch
Language                                 : Japanese
Default                                  : No
Forced                                   : No

Text #1
ID                                       : 4
Format                                   : ASS
Codec ID                                 : S_TEXT/ASS
Codec ID/Info                            : Advanced Sub Station Alpha
Duration                                 : 21 min 17 s
Bit rate                                 : 3 521 b/s
Count of elements                        : 5213
Compression mode                         : Lossless
Stream size                              : 549 KiB (0%)
Title                                    : Signs & Songs [LostYears]
Language                                 : zxx
Default                                  : Yes
Forced                                   : Yes

Text #2
ID                                       : 5
Format                                   : ASS
Codec ID                                 : S_TEXT/ASS
Codec ID/Info                            : Advanced Sub Station Alpha
Duration                                 : 23 min 38 s
Bit rate                                 : 3 310 b/s
Count of elements                        : 5609
Compression mode                         : Lossless
Stream size                              : 573 KiB (0%)
Title                                    : Full Subtitles [LostYears]
Language                                 : English
Default                                  : No
Forced                                   : No

Menu
00:00:00.000                             : en:Intro
00:03:05.119                             : en:OP
00:04:35.109                             : en:Part A
00:13:25.097                             : en:Part B
00:22:14.085                             : en:ED
beta
Anime DDL+NZB mirror
Current Time: 04/04/2020 00:03



About/FAQs