[LostYears] SSSS.GRIDMAN - 10 (WEB 720p Hi444PP AAC) [4ACD4577].mkv


File Size469.5 MB (492,267,944 bytes)
DownloadClickNUpload | Go4Up | Jheberg | MultiUp | OpenLoad | ZippyShare
Sendspace: Part1, Part2
Encrypted DownloadDirect
Password:
HashesCRC32: 4ACD4577, MD5: 3FD4E29F5CC4498B1A5C00B7C029E9E2, SHA1: DA3A919F4AC0B7B14F833C552ECE2CD059AAE2A8, SHA256: 48967421A4D307CB810A073228A5FF35FF4CD93E12607FA7E2EB696FA8F661F3, ED2K: 00434B5B946C05FCAC69C5E464047580
Screenshots
screenshotscreenshotscreenshotscreenshotscreenshot
SubtitlesAll Attachments | Signs & Songs [zxx, ASS], No Honorifics [eng, ASS], Honorifics [enm, ASS]
Additional Info
General
Unique ID                                : 145918649636042667470411807500945780843 (0x6DC6E8E0A5F46707F04B2432E82EF06B)
Complete name                            : [LostYears] SSSS.GRIDMAN - 10 (WEB 720p Hi444PP AAC) [4ACD4577].mkv
Format                                   : Matroska
Format version                           : Version 4 / Version 2
File size                                : 469 MiB
Duration                                 : 23 min 40 s
Overall bit rate                         : 2 773 kb/s
Encoded date                             : UTC 2018-12-15 18:29:38
Writing application                      : mkvmerge v29.0.0 ('Like It Or Not') 64-bit
Writing library                          : libebml v1.3.6 + libmatroska v1.4.9
Attachments                              : AXUREHANDWRITING-BOLD.OTF / Codec-Gridman.ttf / FOT-RodinPro-L.otf / FOT-RodinPro-M.otf / FOTRODINPROUB.TTF / HIGHTOWERTEXT-ITALIC.TTF / KOZUKAGOTHICPR6NR.TTF / MAIANDRAGD-REGULAR.TTF / MARYJANEMEADE.TTF / PROTOTYPE.TTF

Video
ID                                       : 1
Format                                   : AVC
Format/Info                              : Advanced Video Codec
Format profile                           : High 4:4:4 Predictive@L5
Format settings, CABAC                   : Yes
Format settings, ReFrames                : 16 frames
Codec ID                                 : V_MPEG4/ISO/AVC
Duration                                 : 23 min 39 s
Bit rate                                 : 2 215 kb/s
Width                                    : 1 280 pixels
Height                                   : 720 pixels
Display aspect ratio                     : 16:9
Frame rate mode                          : Constant
Frame rate                               : 23.976 (24000/1001) FPS
Color space                              : YUV
Chroma subsampling                       : 4:4:4
Bit depth                                : 10 bits
Scan type                                : Progressive
Bits/(Pixel*Frame)                       : 0.100
Stream size                              : 375 MiB (80%)
Writing library                          : x264 core 155 r2893 b00bcaf
Encoding settings                        : cabac=1 / ref=16 / deblock=1:-1:-1 / analyse=0x1:0x111 / me=umh / subme=10 / psy=1 / psy_rd=0.80:0.00 / mixed_ref=1 / me_range=32 / chroma_me=1 / trellis=2 / 8x8dct=0 / cqm=0 / deadzone=21,11 / fast_pskip=0 / chroma_qp_offset=4 / threads=22 / lookahead_threads=5 / sliced_threads=0 / nr=0 / decimate=0 / interlaced=0 / bluray_compat=0 / constrained_intra=0 / bframes=16 / b_pyramid=2 / b_adapt=2 / b_bias=0 / direct=3 / weightb=1 / open_gop=0 / weightp=2 / keyint=240 / keyint_min=23 / scenecut=40 / intra_refresh=0 / rc_lookahead=48 / rc=crf / mbtree=1 / crf=15.5 / qcomp=0.75 / qpmin=0 / qpmax=81 / qpstep=4 / ip_ratio=1.40 / aq=3:1.00
Language                                 : Japanese
Default                                  : Yes
Forced                                   : No
Color range                              : Limited
Matrix coefficients                      : BT.709

Audio #1
ID                                       : 2
Format                                   : AAC
Format/Info                              : Advanced Audio Codec
Format profile                           : LC
Codec ID                                 : A_AAC
Duration                                 : 23 min 39 s
Bit rate                                 : 253 kb/s
Channel(s)                               : 2 channels
Channel positions                        : Front: L R
Sampling rate                            : 48.0 kHz
Frame rate                               : 46.875 FPS (1024 spf)
Compression mode                         : Lossy
Delay relative to video                  : 17 ms
Stream size                              : 42.9 MiB (9%)
Language                                 : English
Default                                  : Yes
Forced                                   : No

Audio #2
ID                                       : 3
Format                                   : AAC
Format/Info                              : Advanced Audio Codec
Format profile                           : LC
Codec ID                                 : A_AAC
Duration                                 : 23 min 39 s
Bit rate                                 : 252 kb/s
Channel(s)                               : 2 channels
Channel positions                        : Front: L R
Sampling rate                            : 48.0 kHz
Frame rate                               : 46.875 FPS (1024 spf)
Compression mode                         : Lossy
Stream size                              : 42.7 MiB (9%)
Language                                 : Japanese
Default                                  : No
Forced                                   : No

Text #1
ID                                       : 4
Format                                   : ASS
Codec ID                                 : S_TEXT/ASS
Codec ID/Info                            : Advanced Sub Station Alpha
Duration                                 : 23 min 27 s
Bit rate                                 : 1 837 b/s
Count of elements                        : 2329
Compression mode                         : Lossless
Stream size                              : 316 KiB (0%)
Title                                    : Signs & Songs
Language                                 : zxx
Default                                  : Yes
Forced                                   : No

Text #2
ID                                       : 5
Format                                   : ASS
Codec ID                                 : S_TEXT/ASS
Codec ID/Info                            : Advanced Sub Station Alpha
Duration                                 : 23 min 27 s
Bit rate                                 : 1 935 b/s
Count of elements                        : 2621
Compression mode                         : Lossless
Stream size                              : 333 KiB (0%)
Title                                    : No Honorifics
Language                                 : English
Default                                  : No
Forced                                   : No

Text #3
ID                                       : 6
Format                                   : ASS
Codec ID                                 : S_TEXT/ASS
Codec ID/Info                            : Advanced Sub Station Alpha
Duration                                 : 23 min 27 s
Bit rate                                 : 1 935 b/s
Count of elements                        : 2621
Compression mode                         : Lossless
Stream size                              : 333 KiB (0%)
Title                                    : Honorifics
Language                                 : enm
Default                                  : No
Forced                                   : No

Menu
00:00:00.000                             : en:OP
00:01:29.965                             : en:Part A
00:13:15.962                             : en:Part B
00:22:09.912                             : en:ED
beta
Anime DDL+NZB mirror
Current Time: 17/07/2019 17:33



About/FAQs