File Size313.0 MB (328,158,752 bytes)
DownloadClickNUpload | DropAPK | Jheberg
  • 1Fichier
  • 2Giga
  • BDupload
  • ClicknUpload
  • Filerio
  • FilesCDN
  • FilesUpload
  • Free
  • MegaUp
  • Nitroflare
  • Openload
  • ShareOnline
  • Turbobit
  • Tusfiles
  • Uppit
  • Uptobox
  • ddlTo
| MultiUp
  • BdUpload
  • DownAce
  • Fichier
  • FileCloud
  • Filerio
  • FilesCdn
  • IndiShare
  • Kbagi
  • Turbobit
  • UpToBox
  • Uppit
| SolidFiles | ZippyShare
Sendspace: Part1, Part2
HashesCRC32: 6147D216, MD5: 3BE96FA4DA27A6C68623340F7FBB7648, SHA1: D35DA6D974E3E5BB1E50FC42502A20CCBD4CA979, SHA256: F1868247CB35057E5A0683C9116BB0D8E13A6098B3701A79DE62EF290D2D81F3, ED2K: E682B6F9093AAA8CD037B7CD3309677C
Screenshots
screenshotscreenshotscreenshotscreenshotscreenshot
SubtitlesAll Attachments | Signs/Songs [Inu] [eng, ASS], Subtitles [Inu] [jpn, ASS]
Additional Info
General
Unique ID                                : 252967255351375638720701000067896853911 (0xBE4FB8A0C3A111A50871D6B54D844597)
Complete name                            : [LostYears] In Spectre - S01E02 (WEB 720p Hi10P AAC) [6147D216].mkv
Format                                   : Matroska
Format version                           : Version 4
File size                                : 313 MiB
Duration                                 : 24 min 0 s
Overall bit rate                         : 1 823 kb/s
Encoded date                             : UTC 2020-03-07 22:36:25
Writing application                      : mkvmerge v43.0.0 ('The Quartermaster') 64-bit
Writing library                          : libebml v1.3.10 + libmatroska v1.5.2
Cover                                    : Yes
Attachments                              : AARDVRKB.TTF / AbyssTSFont.ttf / Aero Matics Display Bold.ttf / AGaramondPro-Regular.otf / brushtype-normal.ttf / Chocolate Covered Raindrops Bold_0.ttf / GandhiSans-Bold.otf / GandhiSans-BoldItalic.otf / HiraMinProN-W6.otf

Video
ID                                       : 1
Format                                   : AVC
Format/Info                              : Advanced Video Codec
Format profile                           : High 4:4:4 Predictive@L5
Format settings                          : CABAC / 16 Ref Frames
Format settings, CABAC                   : Yes
Format settings, ReFrames                : 16 frames
Codec ID                                 : V_MPEG4/ISO/AVC
Duration                                 : 23 min 59 s
Bit rate                                 : 1 410 kb/s
Width                                    : 1 280 pixels
Height                                   : 720 pixels
Display aspect ratio                     : 16:9
Frame rate mode                          : Constant
Frame rate                               : 23.976 (24000/1001) FPS
Color space                              : YUV
Chroma subsampling                       : 4:4:4
Bit depth                                : 10 bits
Scan type                                : Progressive
Bits/(Pixel*Frame)                       : 0.064
Stream size                              : 242 MiB (77%)
Title                                    : 720p Hi10P WEB x264 [Inu]
Language                                 : Japanese
Default                                  : Yes
Forced                                   : No
Color range                              : Limited
Color primaries                          : BT.709
Transfer characteristics                 : BT.709
Matrix coefficients                      : BT.709

Audio #1
ID                                       : 2
Format                                   : AAC LC
Format/Info                              : Advanced Audio Codec Low Complexity
Codec ID                                 : A_AAC-2
Duration                                 : 24 min 0 s
Bit rate                                 : 128 kb/s
Channel(s)                               : 2 channels
Channel layout                           : L R
Sampling rate                            : 44.1 kHz
Frame rate                               : 43.066 FPS (1024 SPF)
Compression mode                         : Lossy
Stream size                              : 22.0 MiB (7%)
Title                                    : AAC 2.0 [Golumpa]
Language                                 : English
Default                                  : Yes
Forced                                   : No

Audio #2
ID                                       : 3
Format                                   : E-AC-3
Format/Info                              : Enhanced AC-3
Commercial name                          : Dolby Digital Plus
Codec ID                                 : A_EAC3
Duration                                 : 24 min 0 s
Bit rate mode                            : Constant
Bit rate                                 : 224 kb/s
Channel(s)                               : 2 channels
Channel layout                           : L R
Sampling rate                            : 48.0 kHz
Frame rate                               : 31.250 FPS (1536 SPF)
Compression mode                         : Lossy
Stream size                              : 38.5 MiB (12%)
Title                                    : E-AC-3 2.0 [Inu]
Language                                 : Japanese
Service kind                             : Complete Main
Default                                  : No
Forced                                   : No

Text #1
ID                                       : 4
Format                                   : ASS
Codec ID                                 : S_TEXT/ASS
Codec ID/Info                            : Advanced Sub Station Alpha
Duration                                 : 22 min 55 s
Bit rate                                 : 142 b/s
Count of elements                        : 189
Compression mode                         : Lossless
Stream size                              : 23.9 KiB (0%)
Title                                    : Signs/Songs [Inu]
Language                                 : English
Default                                  : Yes
Forced                                   : Yes

Text #2
ID                                       : 5
Format                                   : ASS
Codec ID                                 : S_TEXT/ASS
Codec ID/Info                            : Advanced Sub Station Alpha
Duration                                 : 23 min 51 s
Bit rate                                 : 285 b/s
Count of elements                        : 550
Compression mode                         : Lossless
Stream size                              : 50.0 KiB (0%)
Title                                    : Subtitles [Inu]
Language                                 : Japanese
Default                                  : No
Forced                                   : No

Menu
00:00:00.000                             : :Intro
00:00:31.031                             : :Opening
00:02:00.996                             : :Part A
00:13:17.005                             : :Part B
00:22:15.501                             : :Ending
00:23:44.965                             : :Preview
beta
Anime DDL+NZB mirror
Current Time: 16/01/2021 20:26



About/FAQs