File Size346.8 MB (363,600,997 bytes)
DownloadClickNUpload | Go4Up | Jheberg | MultiUp | OpenLoad | SolidFiles | Upfile.mobi
Sendspace: Part1, Part2
HashesCRC32: 098858D4, MD5: D91152545380D7539DA1590ADB1C9A0A, SHA1: E701A07311F14D06C8C9AD2868AA06D5E4508EE5, SHA256: 8A3046D95454B7DA24BF660F2A1284E3171B41A88B48B3EF73F869D49E1464F8, ED2K: 1C1EBB76F12E116822FE5550F0AEF75D
Screenshots
screenshotscreenshotscreenshotscreenshotscreenshot
SubtitlesAll Attachments | Signs / Songs [eng, ASS], Full Subtitles [Glue] [jpn, ASS]
Additional Info
General
Unique ID                                : 70323825243736055888506291403049771250 (0x34E7E0470BC9A9540FC1C2EE0EDDA0F2)
Complete name                            : [LostYears] Recovery of an MMO Junkie - 11 (Web 720p Hi10 AAC) [098858D4].mkv
Format                                   : Matroska
Format version                           : Version 4 / Version 2
File size                                : 347 MiB
Duration                                 : 24 min 9 s
Overall bit rate                         : 2 007 kb/s
Movie name                               : [LostYears] Recovery of an MMO Junkie - 11 (Web 720p Hi10 AAC)
Encoded date                             : UTC 2018-01-09 02:02:36
Writing application                      : mkvmerge v19.0.0 ('Brave Captain') 64-bit
Writing library                          : libebml v1.3.5 + libmatroska v1.4.8
Attachments                              : A-OTF-Jun34Pro-Medium.otf / FOT Manyo Sosho Std Stripped EB.otf / GARFIELD the CAT.ttf / msgothic.ttc / SafranDPSemiBoldFinal.ttf / SafranDPSemiBoldItalicFinalv2.ttf / Aero Matics Bold.ttf / AGENCYB.TTF / AGENCYR.TTF

Video
ID                                       : 1
Format                                   : AVC
Format/Info                              : Advanced Video Codec
Format profile                           : High 10@L5
Format settings, CABAC                   : Yes
Format settings, ReFrames                : 16 frames
Codec ID                                 : V_MPEG4/ISO/AVC
Duration                                 : 24 min 9 s
Bit rate                                 : 1 540 kb/s
Width                                    : 1 280 pixels
Height                                   : 720 pixels
Display aspect ratio                     : 16:9
Frame rate mode                          : Constant
Frame rate                               : 23.976 (24000/1001) FPS
Color space                              : YUV
Chroma subsampling                       : 4:2:0
Bit depth                                : 10 bits
Scan type                                : Progressive
Bits/(Pixel*Frame)                       : 0.070
Stream size                              : 266 MiB (77%)
Title                                    : Web 720p Hi10 [Glue]
Writing library                          : x264 core 152 r2851+58 429492e t_mod_Custom [10-bit@all X86_64]
Encoding settings                        : cabac=1 / ref=16 / deblock=1:0:0 / analyse=0x3:0x113 / me=umh / subme=10 / psy=1 / fade_compensate=0.70 / psy_rd=0.75:0.05 / mixed_ref=1 / me_range=24 / chroma_me=1 / trellis=2 / 8x8dct=1 / cqm=0 / deadzone=21,11 / fast_pskip=1 / chroma_qp_offset=-3 / threads=12 / lookahead_threads=3 / sliced_threads=0 / nr=0 / decimate=1 / interlaced=0 / bluray_compat=0 / constrained_intra=0 / fgo=0 / bframes=10 / b_pyramid=2 / b_adapt=2 / b_bias=0 / direct=1 / weightb=1 / open_gop=0 / weightp=2 / keyint=250 / keyint_min=23 / scenecut=40 / intra_refresh=0 / rc_lookahead=60 / rc=crf / mbtree=1 / crf=15.0000 / qcomp=0.70 / qpmin=0:0:0 / qpmax=81:81:81 / qpstep=4 / ip_ratio=1.40 / aq=3:0.75 / aq-sensitivity=10.00 / aq-factor=1.00:1.00:1.00 / aq2=0 / aq3=0
Language                                 : Japanese
Default                                  : Yes
Forced                                   : No

Audio #1
ID                                       : 2
Format                                   : AAC
Format/Info                              : Advanced Audio Codec
Format profile                           : LC
Codec ID                                 : A_AAC
Duration                                 : 24 min 9 s
Bit rate                                 : 253 kb/s
Channel(s)                               : 2 channels
Channel positions                        : Front: L R
Sampling rate                            : 48.0 kHz
Frame rate                               : 46.875 FPS (1024 spf)
Compression mode                         : Lossy
Delay relative to video                  : 7 ms
Stream size                              : 43.8 MiB (13%)
Title                                    : English 2.0 AAC (FUNi Simuldub)
Language                                 : English
Default                                  : Yes
Forced                                   : No

Audio #2
ID                                       : 3
Format                                   : AAC
Format/Info                              : Advanced Audio Codec
Format profile                           : LC
Codec ID                                 : A_AAC
Duration                                 : 24 min 9 s
Bit rate                                 : 128 kb/s
Channel(s)                               : 2 channels
Channel positions                        : Front: L R
Sampling rate                            : 44.1 kHz
Frame rate                               : 43.066 FPS (1024 spf)
Compression mode                         : Lossy
Stream size                              : 22.1 MiB (6%)
Title                                    : Japanese 2.0 AAC (CR Rip)
Language                                 : Japanese
Default                                  : No
Forced                                   : No

Text #1
ID                                       : 4
Format                                   : ASS
Codec ID                                 : S_TEXT/ASS
Codec ID/Info                            : Advanced Sub Station Alpha
Duration                                 : 23 min 40 s
Bit rate                                 : 1 480 b/s
Count of elements                        : 2109
Compression mode                         : Lossless
Stream size                              : 257 KiB (0%)
Title                                    : Signs / Songs
Language                                 : English
Default                                  : Yes
Forced                                   : No

Text #2
ID                                       : 5
Format                                   : ASS
Codec ID                                 : S_TEXT/ASS
Codec ID/Info                            : Advanced Sub Station Alpha
Duration                                 : 23 min 40 s
Bit rate                                 : 1 592 b/s
Count of elements                        : 2415
Compression mode                         : Lossless
Stream size                              : 276 KiB (0%)
Title                                    : Full Subtitles [Glue]
Language                                 : Japanese
Default                                  : No
Forced                                   : No

Menu
00:00:00.033                             : en:OP
00:01:30.020                             : en:Episode
00:22:39.580                             : en:ED
beta
Anime DDL+NZB mirror
Current Time: 25/05/2024 21:12



About/FAQs

Discord