[LostYears] Recovery of an MMO Junkie - 07 (Web 720p Hi10 AAC) [F3A72126].mkv


File Size319.6 MB (335,073,084 bytes)
DownloadClickNUpload | Go4Up
  • Ezfile
  • FileFactory
  • FilePup
  • MegaShares
  • Nitroflare
  • NowDownload
  • Oboom
  • OpenLoad
  • Rapidgator
  • Share-Online
  • ToutBox
  • Uplea
  • Uploadable
  • Uppit
  • UsersCloud
| Jheberg | MultiUp | OpenLoad | SolidFiles | Upfile.mobi
Sendspace: Part1, Part2
HashesCRC32: F3A72126, MD5: 4719573964597BE32386502DE7144CCF, SHA1: 1661D509E866419530EBFCB8F0868FB2E0FCA272, SHA256: D56317436CD78F6EC9DC3A0470E900241E1247B9A71864E12D5DD3DA59886C31, ED2K: 85090FB95EF9284CA8E9C2F3C74F09A9
Screenshots
screenshotscreenshotscreenshotscreenshotscreenshot
SubtitlesAll Attachments | Signs / Songs [eng, ASS], Full Subtitles [Glue] [jpn, ASS]
Additional Info
General
Unique ID                                : 247979195169243926968228178963789920591 (0xBA8F0E4608F5FE28A6C8177CF5CA394F)
Complete name                            : [LostYears] Recovery of an MMO Junkie - 07 (Web 720p Hi10 AAC) [F3A72126].mkv
Format                                   : Matroska
Format version                           : Version 4 / Version 2
File size                                : 320 MiB
Duration                                 : 23 min 40 s
Overall bit rate                         : 1 887 kb/s
Movie name                               : [LostYears] Recovery of an MMO Junkie - 07 (Web 720p Hi10 AAC)
Encoded date                             : UTC 2017-12-12 01:16:48
Writing application                      : mkvmerge v17.0.0 ('Be Ur Friend') 64-bit
Writing library                          : libebml v1.3.5 + libmatroska v1.4.8
Attachments                              : H_IMB11.TTF / Hand Of Sean Pro.otf / HTOWERT.TTF / msgothic.ttc / SafranDPSemiBoldFinal.ttf / SafranDPSemiBoldItalicFinalv2.ttf / AeroDB Normal.ttf / AGENCYB.TTF / Angella_demo.otf / A-OTF-Jun34Pro-Medium.otf / AXIS Std B.otf / FOT Manyo Sosho Std Stripped EB.otf

Video
ID                                       : 1
Format                                   : AVC
Format/Info                              : Advanced Video Codec
Format profile                           : High 10@L5
Format settings, CABAC                   : Yes
Format settings, ReFrames                : 16 frames
Codec ID                                 : V_MPEG4/ISO/AVC
Duration                                 : 23 min 40 s
Bit rate                                 : 1 407 kb/s
Width                                    : 1 280 pixels
Height                                   : 720 pixels
Display aspect ratio                     : 16:9
Frame rate mode                          : Constant
Frame rate                               : 23.976 (24000/1001) FPS
Color space                              : YUV
Chroma subsampling                       : 4:2:0
Bit depth                                : 10 bits
Scan type                                : Progressive
Bits/(Pixel*Frame)                       : 0.064
Stream size                              : 238 MiB (75%)
Title                                    : Web 720p Hi10 [Glue]
Writing library                          : x264 core 152 r2851+58 429492e t_mod_Custom [10-bit@all X86_64]
Encoding settings                        : cabac=1 / ref=16 / deblock=1:0:0 / analyse=0x3:0x113 / me=umh / subme=10 / psy=1 / fade_compensate=0.70 / psy_rd=0.75:0.05 / mixed_ref=1 / me_range=24 / chroma_me=1 / trellis=2 / 8x8dct=1 / cqm=0 / deadzone=21,11 / fast_pskip=1 / chroma_qp_offset=-3 / threads=12 / lookahead_threads=3 / sliced_threads=0 / nr=0 / decimate=1 / interlaced=0 / bluray_compat=0 / constrained_intra=0 / fgo=0 / bframes=10 / b_pyramid=2 / b_adapt=2 / b_bias=0 / direct=1 / weightb=1 / open_gop=0 / weightp=2 / keyint=250 / keyint_min=23 / scenecut=40 / intra_refresh=0 / rc_lookahead=60 / rc=crf / mbtree=1 / crf=15.0000 / qcomp=0.70 / qpmin=0:0:0 / qpmax=81:81:81 / qpstep=4 / ip_ratio=1.40 / aq=3:0.75 / aq-sensitivity=10.00 / aq-factor=1.00:1.00:1.00 / aq2=0 / aq3=0
Language                                 : Japanese
Default                                  : Yes
Forced                                   : No

Audio #1
ID                                       : 2
Format                                   : AAC
Format/Info                              : Advanced Audio Codec
Format profile                           : LC
Codec ID                                 : A_AAC
Duration                                 : 23 min 40 s
Bit rate                                 : 253 kb/s
Channel(s)                               : 2 channels
Channel positions                        : Front: L R
Sampling rate                            : 48.0 kHz
Frame rate                               : 46.875 FPS (1024 spf)
Compression mode                         : Lossy
Delay relative to video                  : 7 ms
Stream size                              : 42.9 MiB (13%)
Title                                    : English 2.0 AAC (FUNi Simuldub)
Language                                 : English
Default                                  : Yes
Forced                                   : No

Audio #2
ID                                       : 3
Format                                   : AAC
Format/Info                              : Advanced Audio Codec
Format profile                           : LC
Codec ID                                 : A_AAC
Duration                                 : 23 min 40 s
Bit rate                                 : 128 kb/s
Channel(s)                               : 2 channels
Channel positions                        : Front: L R
Sampling rate                            : 44.1 kHz
Frame rate                               : 43.066 FPS (1024 spf)
Compression mode                         : Lossy
Stream size                              : 21.7 MiB (7%)
Title                                    : Japanese 2.0 AAC (CR Rip)
Language                                 : Japanese
Default                                  : No
Forced                                   : No

Text #1
ID                                       : 4
Format                                   : ASS
Codec ID                                 : S_TEXT/ASS
Codec ID/Info                            : Advanced Sub Station Alpha
Duration                                 : 23 min 25 s
Bit rate                                 : 335 b/s
Count of elements                        : 441
Compression mode                         : Lossless
Stream size                              : 57.5 KiB (0%)
Title                                    : Signs / Songs
Language                                 : English
Default                                  : Yes
Forced                                   : No

Text #2
ID                                       : 5
Format                                   : ASS
Codec ID                                 : S_TEXT/ASS
Codec ID/Info                            : Advanced Sub Station Alpha
Duration                                 : 23 min 25 s
Bit rate                                 : 464 b/s
Count of elements                        : 785
Compression mode                         : Lossless
Stream size                              : 79.6 KiB (0%)
Title                                    : Full Subtitles [Glue]
Language                                 : Japanese
Default                                  : No
Forced                                   : No

Menu
00:00:00.033                             : en:OP
00:01:30.020                             : en:Episode
00:21:55.000                             : en:ED
00:23:25.000                             : en:Preview
beta
Anime DDL+NZB mirror
Current Time: 25/05/2024 15:07



About/FAQs

Discord