[LostYears] Recovery of an MMO Junkie - 01 (Web 720p Hi10 AAC) [69E4AEB6].mkv


File Size290.1 MB (304,239,754 bytes)
DownloadClickNUpload | Go4Up
  • Ezfile
  • FileFactory
  • FilePup
  • MegaShares
  • Nitroflare
  • NowDownload
  • Oboom
  • OpenLoad
  • Rapidgator
  • Share-Online
  • ToutBox
  • Uplea
  • Uploadable
  • Uppit
  • UsersCloud
| Jheberg | MultiUp
  • ClickNupload
  • Fichier
  • Filerio
  • Free
  • Fufox
  • HugeFiles
  • Mightyupload
  • ToutBox
  • Turbobit
  • UpToBox
  • Uplea
  • UploadBaz
  • Uploadable
  • Uploaded
  • Uppit
  • Userscloud
| OpenLoad | Sendspace | SolidFiles
HashesCRC32: 69E4AEB6, MD5: FEBF058CDFDD8465584B1EB6C5884A1F, SHA1: 1AF1B61D790D1F17A1F700E1CB5F449C50357911, SHA256: 5A1C1A7257187B50757C8F8304E8EA09FB7B4C922BC679F7DA500C0761FA632F, ED2K: 44C6526B9F70D61BAC051D6A7914E7C5
Screenshots
screenshotscreenshotscreenshotscreenshotscreenshot
SubtitlesAll Attachments | Signs / Songs [eng, ASS], Full Subtitles [Glue] [jpn, ASS]
Additional Info
General
Unique ID                                : 241687043186171454231879440677584087114 (0xB5D33B3AB0435B6394FB82E1BA69A84A)
Complete name                            : [LostYears] Recovery of an MMO Junkie - 01 (Web 720p Hi10 AAC) [69E4AEB6].mkv
Format                                   : Matroska
Format version                           : Version 4 / Version 2
File size                                : 290 MiB
Duration                                 : 23 min 40 s
Overall bit rate                         : 1 714 kb/s
Movie name                               : [LostYears] Recovery of an MMO Junkie - 01 (Web 720p Hi10 AAC)
Encoded date                             : UTC 2017-10-31 02:35:20
Writing application                      : mkvmerge v17.0.0 ('Be Ur Friend') 64-bit
Writing library                          : libebml v1.3.5 + libmatroska v1.4.8
Attachments                              : FOTManyoSoshoStdStripped-EB2 (1).otf / HANNAHANDWRITING.TTF / msgothic.ttc / SafranDPSemiBoldFinal.ttf / SafranDPSemiBoldItalicFinalv2.ttf / AbelBecker Bold.ttf / Aero Matics Bold.ttf / AeroDB Normal.ttf / A-OTF-Jun501Pro-Bold.otf / arialbd.ttf / AXIS Std B.otf

Video
ID                                       : 1
Format                                   : AVC
Format/Info                              : Advanced Video Codec
Format profile                           : High 10@L5
Format settings, CABAC                   : Yes
Format settings, ReFrames                : 16 frames
Codec ID                                 : V_MPEG4/ISO/AVC
Duration                                 : 23 min 40 s
Bit rate                                 : 1 230 kb/s
Width                                    : 1 280 pixels
Height                                   : 720 pixels
Display aspect ratio                     : 16:9
Frame rate mode                          : Constant
Frame rate                               : 23.976 (24000/1001) FPS
Color space                              : YUV
Chroma subsampling                       : 4:2:0
Bit depth                                : 10 bits
Scan type                                : Progressive
Bits/(Pixel*Frame)                       : 0.056
Stream size                              : 208 MiB (72%)
Title                                    : Web 720p Hi10 [Glue]
Writing library                          : x264 core 152 r2851+58 429492e t_mod_Custom [10-bit@all X86_64]
Encoding settings                        : cabac=1 / ref=16 / deblock=1:0:0 / analyse=0x3:0x113 / me=umh / subme=10 / psy=1 / fade_compensate=0.70 / psy_rd=0.75:0.05 / mixed_ref=1 / me_range=24 / chroma_me=1 / trellis=2 / 8x8dct=1 / cqm=0 / deadzone=21,11 / fast_pskip=1 / chroma_qp_offset=-3 / threads=12 / lookahead_threads=3 / sliced_threads=0 / nr=0 / decimate=1 / interlaced=0 / bluray_compat=0 / constrained_intra=0 / fgo=0 / bframes=10 / b_pyramid=2 / b_adapt=2 / b_bias=0 / direct=1 / weightb=1 / open_gop=0 / weightp=2 / keyint=250 / keyint_min=23 / scenecut=40 / intra_refresh=0 / rc_lookahead=60 / rc=crf / mbtree=1 / crf=17.0000 / qcomp=0.70 / qpmin=0:0:0 / qpmax=81:81:81 / qpstep=4 / ip_ratio=1.40 / aq=3:0.75 / aq-sensitivity=10.00 / aq-factor=1.00:1.00:1.00 / aq2=0 / aq3=0
Language                                 : Japanese
Default                                  : Yes
Forced                                   : No

Audio #1
ID                                       : 2
Format                                   : AAC
Format/Info                              : Advanced Audio Codec
Format profile                           : LC
Codec ID                                 : A_AAC
Duration                                 : 23 min 40 s
Bit rate                                 : 253 kb/s
Channel(s)                               : 2 channels
Channel positions                        : Front: L R
Sampling rate                            : 48.0 kHz
Frame rate                               : 46.875 FPS (1024 spf)
Compression mode                         : Lossy
Delay relative to video                  : 7 ms
Stream size                              : 42.9 MiB (15%)
Title                                    : English 2.0 AAC (FUNi Simuldub)
Language                                 : English
Default                                  : Yes
Forced                                   : No

Audio #2
ID                                       : 3
Format                                   : AAC
Format/Info                              : Advanced Audio Codec
Format profile                           : LC
Codec ID                                 : A_AAC
Duration                                 : 23 min 40 s
Bit rate                                 : 128 kb/s
Channel(s)                               : 2 channels
Channel positions                        : Front: L R
Sampling rate                            : 44.1 kHz
Frame rate                               : 43.066 FPS (1024 spf)
Compression mode                         : Lossy
Stream size                              : 21.7 MiB (7%)
Title                                    : Japanese 2.0 AAC (CR Rip)
Language                                 : Japanese
Default                                  : No
Forced                                   : No

Text #1
ID                                       : 4
Format                                   : ASS
Codec ID                                 : S_TEXT/ASS
Codec ID/Info                            : Advanced Sub Station Alpha
Duration                                 : 23 min 25 s
Bit rate                                 : 971 b/s
Count of elements                        : 1378
Compression mode                         : Lossless
Stream size                              : 167 KiB (0%)
Title                                    : Signs / Songs
Language                                 : English
Default                                  : Yes
Forced                                   : No

Text #2
ID                                       : 5
Format                                   : ASS
Codec ID                                 : S_TEXT/ASS
Codec ID/Info                            : Advanced Sub Station Alpha
Duration                                 : 23 min 25 s
Bit rate                                 : 1 061 b/s
Count of elements                        : 1634
Compression mode                         : Lossless
Stream size                              : 182 KiB (0%)
Title                                    : Full Subtitles [Glue]
Language                                 : Japanese
Default                                  : No
Forced                                   : No

Menu
00:00:00.033                             : en:Intro
00:01:30.020                             : en:Episode
00:21:55.000                             : en:ED
00:23:25.000                             : en:Preview
beta
Anime DDL+NZB mirror
Current Time: 14/07/2024 16:20



About/FAQs

Discord