File Size1.260 GB (1,352,659,383 bytes)
DownloadClickNUpload | Jheberg
MultiUp: Part1
  • BdUpload
  • DownAce
  • Fichier
  • FileCloud
  • Filerio
  • FilesCdn
  • IndiShare
  • Kbagi
  • Turbobit
  • UpToBox
  • Uppit
, Part2
  • BdUpload
  • DownAce
  • Fichier
  • FileCloud
  • Filerio
  • FilesCdn
  • IndiShare
  • Kbagi
  • Turbobit
  • UpToBox
  • Uppit
, Part3
  • BdUpload
  • DownAce
  • Fichier
  • FileCloud
  • Filerio
  • FilesCdn
  • IndiShare
  • Kbagi
  • Turbobit
  • UpToBox
  • Uppit

Sendspace: Part1, Part2, Part3, Part4, Part5
SolidFiles: Part1, Part2, Part3
ZippyShare: Part1, Part2, Part3
HashesCRC32: 106E057A, MD5: 6D502E7BD39295E107C7BC6000DF7DBD, SHA1: 06C6B104264C31BB9D6743085480F033487A2A5D, SHA256: 6A7AD742A717233426A50A624EE53609050202006E5677210C2B94E4E0B4D9DB, ED2K: 0B3A9856E0CF2EC98A75C2FA1750CFC4
Screenshots
screenshotscreenshotscreenshotscreenshotscreenshot
SubtitlesAll Attachments | Signs & Songs [zxx, ASS], Full Subtitles [GJM] [eng, ASS]
Additional Info
General
Unique ID                                : 254440164150036788967248599344485201420 (0xBF6B64A374A857E22194E3B386AB760C)
Complete name                            : [LostYears] One Punch Man - S02E10 (WEB 1080p x264 10-bit AAC) [106E057A].mkv
Format                                   : Matroska
Format version                           : Version 4
File size                                : 1.26 GiB
Duration                                 : 23 min 50 s
Overall bit rate                         : 7 567 kb/s
Movie name                               : [LostYears] One Punch Man - S02E10
Encoded date                             : UTC 2019-12-15 16:46:13
Writing application                      : mkvmerge v25.0.0 ('Prog Noir') 64-bit
Writing library                          : libebml v1.3.6 + libmatroska v1.4.9
Attachments                              : IWAMINPROEN-BD.OTF / JANEROE-BOLD.TTF / MASTERBREAKER.TTF / PEUNABRUSH-REGULAR.OTF / SPLATCH.TTF / VAKANSY.TTF / WORKSANS-BLACK.TTF / WORKSANS-BOLD.TTF / WORKSANS-MEDIUM.TTF / XANGDASHINY.TTF / ALBATROSS.TTF / AWESOMESAUCEDEMO-REGULAR.OTF / CHOMSKY.OTF / FRANCHISE-BOLD.TTF / GANDHISANS-BOLD.OTF / GANDHISANS-BOLDITALIC.OTF

Video
ID                                       : 1
Format                                   : AVC
Format/Info                              : Advanced Video Codec
Format profile                           : High 10@L5.1
Format settings                          : CABAC / 16 Ref Frames
Format settings, CABAC                   : Yes
Format settings, ReFrames                : 16 frames
Codec ID                                 : V_MPEG4/ISO/AVC
Duration                                 : 23 min 50 s
Bit rate                                 : 7 072 kb/s
Width                                    : 1 920 pixels
Height                                   : 1 080 pixels
Display aspect ratio                     : 16:9
Frame rate mode                          : Constant
Frame rate                               : 23.976 (24000/1001) FPS
Color space                              : YUV
Chroma subsampling                       : 4:2:0
Bit depth                                : 10 bits
Scan type                                : Progressive
Bits/(Pixel*Frame)                       : 0.142
Stream size                              : 1.18 GiB (93%)
Title                                    : WEB 1080p x264 10-bit [GJM]
Writing library                          : x264 core 155 r2893 b00bcaf
Encoding settings                        : cabac=1 / ref=16 / deblock=1:-2:-2 / analyse=0x3:0x113 / me=umh / subme=10 / psy=1 / psy_rd=0.80:0.00 / mixed_ref=1 / me_range=32 / chroma_me=1 / trellis=2 / 8x8dct=1 / cqm=0 / deadzone=21,11 / fast_pskip=0 / chroma_qp_offset=-2 / threads=24 / lookahead_threads=6 / sliced_threads=0 / nr=0 / decimate=0 / interlaced=0 / bluray_compat=0 / constrained_intra=0 / bframes=16 / b_pyramid=2 / b_adapt=2 / b_bias=0 / direct=3 / weightb=1 / open_gop=0 / weightp=2 / keyint=240 / keyint_min=23 / scenecut=40 / intra_refresh=0 / rc_lookahead=48 / rc=crf / mbtree=1 / crf=16.0 / qcomp=0.70 / qpmin=0 / qpmax=81 / qpstep=4 / ip_ratio=1.40 / aq=3:0.90
Language                                 : Japanese
Default                                  : Yes
Forced                                   : No
Color range                              : Limited
Matrix coefficients                      : BT.709

Audio #1
ID                                       : 2
Format                                   : AAC LC
Format/Info                              : Advanced Audio Codec Low Complexity
Codec ID                                 : A_AAC-2
Duration                                 : 23 min 50 s
Bit rate                                 : 196 kb/s
Channel(s)                               : 2 channels
Channel layout                           : L R
Sampling rate                            : 48.0 kHz
Frame rate                               : 46.875 FPS (1024 SPF)
Compression mode                         : Lossy
Stream size                              : 33.4 MiB (3%)
Title                                    : English 2ch
Language                                 : English
Default                                  : Yes
Forced                                   : No

Audio #2
ID                                       : 3
Format                                   : AAC LC
Format/Info                              : Advanced Audio Codec Low Complexity
Codec ID                                 : A_AAC-2
Duration                                 : 23 min 50 s
Bit rate                                 : 256 kb/s
Channel(s)                               : 2 channels
Channel layout                           : L R
Sampling rate                            : 48.0 kHz
Frame rate                               : 46.875 FPS (1024 SPF)
Compression mode                         : Lossy
Stream size                              : 43.6 MiB (3%)
Title                                    : Japanese 2ch
Language                                 : Japanese
Default                                  : No
Forced                                   : No

Text #1
ID                                       : 4
Format                                   : ASS
Codec ID                                 : S_TEXT/ASS
Codec ID/Info                            : Advanced Sub Station Alpha
Duration                                 : 23 min 33 s
Bit rate                                 : 972 b/s
Count of elements                        : 1220
Compression mode                         : Lossless
Stream size                              : 168 KiB (0%)
Title                                    : Signs & Songs
Language                                 : zxx
Default                                  : Yes
Forced                                   : Yes

Text #2
ID                                       : 5
Format                                   : ASS
Codec ID                                 : S_TEXT/ASS
Codec ID/Info                            : Advanced Sub Station Alpha
Duration                                 : 23 min 48 s
Bit rate                                 : 1 112 b/s
Count of elements                        : 1647
Compression mode                         : Lossless
Stream size                              : 194 KiB (0%)
Title                                    : Full Subtitles [GJM]
Language                                 : English
Default                                  : No
Forced                                   : No

Menu
00:00:00.000                             : en:Prologue
00:01:36.513                             : en:OP
00:03:05.977                             : en:Main Episode
00:22:15.042                             : en:ED
00:23:45.007                             : en:Preview
beta
Anime DDL+NZB mirror
Current Time: 28/03/2020 21:01



About/FAQs