File Size1.220 GB (1,309,448,971 bytes)
DownloadClickNUpload | Jheberg
MultiUp: Part1
  • BdUpload
  • DownAce
  • Fichier
  • FileCloud
  • Filerio
  • FilesCdn
  • IndiShare
  • Kbagi
  • Turbobit
  • UpToBox
  • Uppit
, Part2
  • BdUpload
  • DownAce
  • Fichier
  • FileCloud
  • Filerio
  • FilesCdn
  • IndiShare
  • Kbagi
  • Turbobit
  • UpToBox
  • Uppit
, Part3
  • BdUpload
  • DownAce
  • Fichier
  • FileCloud
  • Filerio
  • FilesCdn
  • IndiShare
  • Kbagi
  • Turbobit
  • UpToBox
  • Uppit

Sendspace: Part1, Part2, Part3, Part4, Part5
SolidFiles: Part1, Part2, Part3
ZippyShare: Part1, Part2, Part3
HashesCRC32: 40CEB72A, MD5: BB0B0CEB006D65251FBB2CF92AF27F0B, SHA1: 997CAE1B964B0A1E175B62882A9BB70A9D123535, SHA256: 5AE4AC4F34C8E5040561C210B78DFE8493CE89A85B0A27F57D5A975B671E9FF1, ED2K: 4524EB047F8E7A430A62282761F811B6
Screenshots
screenshotscreenshotscreenshotscreenshotscreenshot
SubtitlesAll Attachments | Signs & Songs [zxx, ASS], Full Subtitles [GJM] [eng, ASS]
Additional Info
General
Unique ID                                : 22107294027417321542175404060389052132 (0x10A1B5BFA7C0F3420888279C0CFE8EE4)
Complete name                            : [LostYears] One Punch Man - S02E06 (WEB 1080p x264 10-bit AAC) [40CEB72A].mkv
Format                                   : Matroska
Format version                           : Version 4
File size                                : 1.22 GiB
Duration                                 : 23 min 50 s
Overall bit rate                         : 7 325 kb/s
Movie name                               : [LostYears] One Punch Man - S02E06
Encoded date                             : UTC 2019-11-18 05:36:21
Writing application                      : mkvmerge v25.0.0 ('Prog Noir') 64-bit
Writing library                          : libebml v1.3.6 + libmatroska v1.4.9
Attachments                              : FRESHMARKER.TTF / GANDHISANS-BOLD.OTF / GANDHISANS-BOLDITALIC.OTF / HAPPYDAY-REGULAR.TTF / JANEROE-BOLD.TTF / PEUNABRUSH-REGULAR.OTF / WORKSANS-BLACK.TTF / WORKSANS-BOLD.TTF / XANGDASHINY.TTF / ALBATROSS.TTF / AVER.TTF / AVER-BOLD.TTF / AWESOMESAUCEDEMO-REGULAR.OTF / FRANCHISE-BOLD.TTF

Video
ID                                       : 1
Format                                   : AVC
Format/Info                              : Advanced Video Codec
Format profile                           : High 10@L5.1
Format settings                          : CABAC / 16 Ref Frames
Format settings, CABAC                   : Yes
Format settings, ReFrames                : 16 frames
Codec ID                                 : V_MPEG4/ISO/AVC
Duration                                 : 23 min 50 s
Bit rate                                 : 6 857 kb/s
Width                                    : 1 920 pixels
Height                                   : 1 080 pixels
Display aspect ratio                     : 16:9
Frame rate mode                          : Constant
Frame rate                               : 23.976 (24000/1001) FPS
Color space                              : YUV
Chroma subsampling                       : 4:2:0
Bit depth                                : 10 bits
Scan type                                : Progressive
Bits/(Pixel*Frame)                       : 0.138
Stream size                              : 1.14 GiB (94%)
Title                                    : WEB 1080p x264 10-bit [GJM]
Writing library                          : x264 core 155 r2893 b00bcaf
Encoding settings                        : cabac=1 / ref=16 / deblock=1:-2:-2 / analyse=0x3:0x113 / me=umh / subme=10 / psy=1 / psy_rd=0.80:0.00 / mixed_ref=1 / me_range=32 / chroma_me=1 / trellis=2 / 8x8dct=1 / cqm=0 / deadzone=21,11 / fast_pskip=0 / chroma_qp_offset=-2 / threads=24 / lookahead_threads=6 / sliced_threads=0 / nr=0 / decimate=0 / interlaced=0 / bluray_compat=0 / constrained_intra=0 / bframes=16 / b_pyramid=2 / b_adapt=2 / b_bias=0 / direct=3 / weightb=1 / open_gop=0 / weightp=2 / keyint=240 / keyint_min=23 / scenecut=40 / intra_refresh=0 / rc_lookahead=48 / rc=crf / mbtree=1 / crf=16.0 / qcomp=0.70 / qpmin=0 / qpmax=81 / qpstep=4 / ip_ratio=1.40 / aq=3:0.90
Language                                 : Japanese
Default                                  : Yes
Forced                                   : No
Color range                              : Limited
Matrix coefficients                      : BT.709

Audio #1
ID                                       : 2
Format                                   : AAC LC
Format/Info                              : Advanced Audio Codec Low Complexity
Codec ID                                 : A_AAC-2
Duration                                 : 23 min 50 s
Bit rate                                 : 196 kb/s
Channel(s)                               : 2 channels
Channel layout                           : L R
Sampling rate                            : 48.0 kHz
Frame rate                               : 46.875 FPS (1024 SPF)
Compression mode                         : Lossy
Stream size                              : 33.4 MiB (3%)
Title                                    : English 2ch
Language                                 : English
Default                                  : Yes
Forced                                   : No

Audio #2
ID                                       : 3
Format                                   : AAC LC
Format/Info                              : Advanced Audio Codec Low Complexity
Codec ID                                 : A_AAC-2
Duration                                 : 23 min 50 s
Bit rate                                 : 256 kb/s
Channel(s)                               : 2 channels
Channel layout                           : L R
Sampling rate                            : 48.0 kHz
Frame rate                               : 46.875 FPS (1024 SPF)
Compression mode                         : Lossy
Stream size                              : 43.6 MiB (3%)
Title                                    : Japanese 2ch
Language                                 : Japanese
Default                                  : No
Forced                                   : No

Text #1
ID                                       : 4
Format                                   : ASS
Codec ID                                 : S_TEXT/ASS
Codec ID/Info                            : Advanced Sub Station Alpha
Duration                                 : 21 min 58 s
Bit rate                                 : 1 432 b/s
Count of elements                        : 1733
Compression mode                         : Lossless
Stream size                              : 231 KiB (0%)
Title                                    : Signs & Songs
Language                                 : zxx
Default                                  : Yes
Forced                                   : Yes

Text #2
ID                                       : 5
Format                                   : ASS
Codec ID                                 : S_TEXT/ASS
Codec ID/Info                            : Advanced Sub Station Alpha
Duration                                 : 23 min 48 s
Bit rate                                 : 1 474 b/s
Count of elements                        : 2156
Compression mode                         : Lossless
Stream size                              : 257 KiB (0%)
Title                                    : Full Subtitles [GJM]
Language                                 : English
Default                                  : No
Forced                                   : No

Menu
00:00:00.000                             : en:Prologue
00:01:41.018                             : en:OP
00:03:10.982                             : en:Main Episode
00:21:30.998                             : en:ED
00:23:01.005                             : en:Epilogue
00:23:45.007                             : en:Preview
beta
Anime DDL+NZB mirror
Current Time: 25/05/2024 20:02



About/FAQs

Discord