File Size776.9 MB (814,675,686 bytes)
DownloadClickNUpload | DownloadGG | DropAPK
MultiUp: Part1
  • BdUpload
  • DownAce
  • Fichier
  • FileCloud
  • Filerio
  • FilesCdn
  • IndiShare
  • Kbagi
  • Turbobit
  • UpToBox
  • Uppit
, Part2
  • BdUpload
  • DownAce
  • Fichier
  • FileCloud
  • Filerio
  • FilesCdn
  • IndiShare
  • Kbagi
  • Turbobit
  • UpToBox
  • Uppit

SolidFiles: Part1, Part2
ZippyShare: Part1, Part2
HashesCRC32: 391765F7, MD5: CAE3FC4B8842720A67AE11E6D0CEEFC0, SHA1: 60C28C3AF9A52E9EEBE177E859CA5400A96B1AA3, SHA256: 5DF14B23078D26FA9EAB4F0084F4419320F496BA873C87C5A2A8F59113847155, ED2K: 4AE9CC43B30C4A3BB72131A53088E9AF
Screenshots
screenshotscreenshotscreenshotscreenshotscreenshot
SubtitlesAll Attachments | Signs & Songs [eng, ASS], Full Subtitles [Nyanpasu] [eng, ASS]
Additional Info
General
Unique ID                                : 2054700483232266963798218255482047818 (0x18BB88E216D118CE3D855B4D2A94D4A)
Complete name                            : [LostYears] Mother of the Goddess' Dormitory - 01 (WEB 1080p x265 10-bit AAC) [391765F7].mkv
Format                                   : Matroska
Format version                           : Version 4
File size                                : 777 MiB
Duration                                 : 24 min 56 s
Overall bit rate                         : 4 355 kb/s
Encoded date                             : UTC 2021-08-25 22:28:08
Writing application                      : mkvmerge v60.0.0 ('Are We Copies?') 64-bit
Writing library                          : libebml v1.4.2 + libmatroska v1.6.4
Attachments                              : Bungee-Regular.ttf / DFGR5-Amagami.ttf / GillSansLightNova.ttf / HoboStd_0.otf / LEXIA_0.otf / MAGRA-BOLD.TTF / tt0524m_0.ttf / ariblk.ttf / AutourOne-Regular_0.ttf / BAUHS93_0.TTF / calibrib.ttf / CatCafe_0.ttf / courbd.ttf / ebrimabd.ttf / Even Stevens_0.ttf / FGKlara_0.ttf / LatoWeb-Bold.ttf / LatoWeb-BoldItalic.ttf / MISTRAL_0.TTF / POLO_0.TTF / 111_0.otf / BARBEDORT-HEAV_0.OTF / CrapBGSB (curved ends).otf / KozGoPr6N-Heavy.otf / LeagueGothic-Regular_0.otf / Montara-Gothic.otf

Video
ID                                       : 1
Format                                   : HEVC
Format/Info                              : High Efficiency Video Coding
Format profile                           : Main 10@L4@Main
Codec ID                                 : V_MPEGH/ISO/HEVC
Duration                                 : 24 min 11 s
Bit rate                                 : 4 109 kb/s
Width                                    : 1 920 pixels
Height                                   : 1 080 pixels
Display aspect ratio                     : 16:9
Frame rate mode                          : Constant
Frame rate                               : 23.976 (23976/1000) FPS
Original frame rate                      : 23.976 (24000/1001) FPS
Color space                              : YUV
Chroma subsampling                       : 4:2:0
Bit depth                                : 10 bits
Bits/(Pixel*Frame)                       : 0.083
Stream size                              : 711 MiB (91%)
Title                                    : [Nyanpasu]
Writing library                          : x265 3.4+28-419182243:[Windows][clang 11.0.0][64 bit] 10bit
Encoding settings                        : cpuid=1111039 / frame-threads=16 / numa-pools=32 / wpp / no-pmode / no-pme / no-psnr / no-ssim / log-level=3 / input-csp=1 / input-res=1920x1080 / interlace=0 / total-frames=0 / level-idc=0 / high-tier=1 / uhd-bd=0 / ref=5 / allow-non-conformance / no-repeat-headers / annexb / no-aud / no-hrd / info / hash=0 / no-temporal-layers / open-gop / min-keyint=24 / keyint=240 / gop-lookahead=0 / bframes=8 / b-adapt=2 / b-pyramid / bframe-bias=0 / rc-lookahead=40 / lookahead-slices=0 / scenecut=40 / hist-scenecut=0 / radl=0 / no-splice / no-intra-refresh / ctu=64 / min-cu-size=8 / rect / amp / max-tu-size=32 / tu-inter-depth=3 / tu-intra-depth=3 / limit-tu=4 / rdoq-level=2 / dynamic-rd=0.00 / no-ssim-rd / signhide / no-tskip / nr-intra=0 / nr-inter=0 / no-constrained-intra / strong-intra-smoothing / max-merge=4 / limit-refs=1 / limit-modes / me=3 / subme=4 / merange=57 / temporal-mvp / no-frame-dup / no-hme / weightp / weightb / no-analyze-src-pics / deblock=-5:-5 / sao / no-sao-non-deblock / rd=6 / selective-sao=4 / no-early-skip / rskip / no-fast-intra / no-tskip-fast / no-cu-lossless / b-intra / no-splitrd-skip / rdpenalty=0 / psy-rd=2.00 / psy-rdoq=1.00 / no-rd-refine / no-lossless / cbqpoffs=0 / crqpoffs=0 / rc=cqp / qp=17 / ipratio=1.40 / pbratio=1.30 / aq-mode=0 / aq-strength=0.00 / no-cutree / zone-count=0 / no-strict-cbr / qg-size=64 / no-rc-grain / qpmax=69 / qpmin=0 / no-const-vbv / sar=1 / overscan=0 / videoformat=5 / range=0 / colorprim=2 / transfer=2 / colormatrix=2 / chromaloc=0 / display-window=0 / cll=0,0 / min-luma=0 / max-luma=1023 / log2-max-poc-lsb=8 / vui-timing-info / vui-hrd-info / slices=1 / no-opt-qp-pps / no-opt-ref-list-length-pps / no-multi-pass-opt-rps / scenecut-bias=0.05 / hist-threshold=0.03 / no-opt-cu-delta-qp / no-aq-motion / no-hdr10 / no-hdr10-opt / no-dhdr10-opt / no-idr-recovery-sei / analysis-reuse-level=0 / analysis-save-reuse-level=0 / analysis-load-reuse-level=0 / scale-factor=0 / refine-intra=0 / refine-inter=0 / refine-mv=1 / refine-ctu-distortion=0 / no-limit-sao / ctu-info=0 / no-lowpass-dct / refine-analysis-type=0 / copy-pic=1 / max-ausize-factor=1.0 / no-dynamic-refine / no-single-sei / no-hevc-aq / no-svt / no-field / qp-adaptation-range=1.00 / no-scenecut-aware-qpconformance-window-offsets / right=0 / bottom=0 / decoder-max-rate=0 / no-vbv-live-multi-pass
Language                                 : Japanese
Default                                  : Yes
Forced                                   : No
Color range                              : Limited
ENCODING_INFO                            : H264 > X265 CQ 17 Slower

Audio #1
ID                                       : 2
Format                                   : AAC LC
Format/Info                              : Advanced Audio Codec Low Complexity
Codec ID                                 : A_AAC-2
Duration                                 : 24 min 56 s
Bit rate                                 : 157 kb/s
Channel(s)                               : 2 channels
Channel layout                           : L R
Sampling rate                            : 48.0 kHz
Frame rate                               : 46.875 FPS (1024 SPF)
Compression mode                         : Lossy
Delay relative to video                  : 11 ms
Stream size                              : 28.1 MiB (4%)
Title                                    : English 2.0 AAC
Language                                 : English
Default                                  : Yes
Forced                                   : No

Audio #2
ID                                       : 3
Format                                   : AAC LC
Format/Info                              : Advanced Audio Codec Low Complexity
Codec ID                                 : A_AAC-2
Duration                                 : 24 min 11 s
Bit rate                                 : 128 kb/s
Channel(s)                               : 2 channels
Channel layout                           : L R
Sampling rate                            : 44.1 kHz
Frame rate                               : 43.066 FPS (1024 SPF)
Compression mode                         : Lossy
Stream size                              : 22.1 MiB (3%)
Title                                    : Japanese 2.0 AAC
Language                                 : Japanese
Default                                  : No
Forced                                   : No
ENCODING_INFO                            : AAC-LC > COPY Smart

Text #1
ID                                       : 4
Format                                   : ASS
Codec ID                                 : S_TEXT/ASS
Codec ID/Info                            : Advanced Sub Station Alpha
Duration                                 : 23 min 47 s
Bit rate                                 : 90 b/s
Count of elements                        : 223
Compression mode                         : Lossless
Stream size                              : 15.7 KiB (0%)
Title                                    : Signs & Songs
Language                                 : English
Default                                  : Yes
Forced                                   : Yes

Text #2
ID                                       : 5
Format                                   : ASS
Codec ID                                 : S_TEXT/ASS
Codec ID/Info                            : Advanced Sub Station Alpha
Duration                                 : 23 min 57 s
Bit rate                                 : 145 b/s
Count of elements                        : 430
Compression mode                         : Lossless
Stream size                              : 25.6 KiB (0%)
Title                                    : Full Subtitles [Nyanpasu]
Language                                 : English
Default                                  : Yes
Forced                                   : No

Menu
00:00:00.000                             : Start
00:00:26.000                             : OP
00:01:56.030                             : Part 1
00:14:29.995                             : Part 2
00:12:59.998                             : ED
00:23:51.010                             : Preview
beta
Anime DDL+NZB mirror
Current Time: 02/12/2021 09:05



About/FAQs

Discord