File Size1.074 GB (1,153,212,914 bytes)
DownloadClickNUpload | DropAPK
DownloadGG: Part1, Part2
MultiUp: Part1
  • BdUpload
  • DownAce
  • Fichier
  • FileCloud
  • Filerio
  • FilesCdn
  • IndiShare
  • Kbagi
  • Turbobit
  • UpToBox
  • Uppit
, Part2
  • BdUpload
  • DownAce
  • Fichier
  • FileCloud
  • Filerio
  • FilesCdn
  • IndiShare
  • Kbagi
  • Turbobit
  • UpToBox
  • Uppit
, Part3
  • BdUpload
  • DownAce
  • Fichier
  • FileCloud
  • Filerio
  • FilesCdn
  • IndiShare
  • Kbagi
  • Turbobit
  • UpToBox
  • Uppit

SolidFiles: Part1, Part2, Part3
ZippyShare: Part1, Part2, Part3
HashesCRC32: 0E449C1B, MD5: C3975AFFDD5095C420DA6F9503DF5329, SHA1: CF6398396BBE393CD988CA60EED51DA07997A8FE, SHA256: F70F49211C2AE15B19A32410A084D70B7EA22CCF338E86791F40F655D9E44531, ED2K: 2E177A8255282FDE69AFE38920F9E381
Screenshots
screenshotscreenshotscreenshotscreenshotscreenshot
SubtitlesAll Attachments | Signs & Songs [eng, ASS], Full Subtitles [DDY] [eng, ASS]
Additional Info
General
Unique ID                                : 158208319163660823192274453371936064176 (0x7705D05DE72DDDE55C1A5210090842B0)
Complete name                            : [LostYears] Miss Kobayashi's Dragon Maid S - S02E05 (WEB 1080p x264 10-bit AAC) [0E449C1B].mkv
Format                                   : Matroska
Format version                           : Version 4
File size                                : 1.07 GiB
Duration                                 : 23 min 43 s
Overall bit rate                         : 6 483 kb/s
Encoded date                             : UTC 2021-09-15 20:37:11
Writing application                      : mkvmerge v61.0.0 ('So') 64-bit
Writing library                          : libebml v1.4.2 + libmatroska v1.6.4
Attachments                              : ARIAL.TTF / CRONOSPRO-BOLD.OTF / CRONOSPRO-BOLDIT.OTF / Abscissa.ttf / AltonaBold.ttf / APJFK-AnoHana.ttf / arial.ttf / ArnovaITC TT.ttf / AugieHU.ttf / Balloon.TTF / Baqa.otf / Barthowheel Regular.otf / BirchStd.otf / Blockhead.otf / CCComicrazy Roman.ttf / Crayon  Alphabet.ttf / Doctor Soos Bold.otf / Dom Casual BT.ttf / Droid Sans Bold.otf / ExpoSansPro-Bold.otf / Full Dece Sans.ttf / Griddies.ttf / Hawaiian Aloha BTN.otf / Hearts BV.ttf / Hooteroll.ttf / Hzs_Informal.ttf / InterNuT Round-old.ttf / InterNuT Round.ttf / Jacoby Regular.ttf / KBPlanetEarth.ttf / Margarine.otf / Marker SD.otf / MotterCorpusStd-Condensed.otf / MTF Heart Doodle.ttf / nagayama_kai08.otf / Nothing You Could Say.otf / Pick Ax.otf / PresentLTStd-Black.otf / Romeodn.ttf / RotisSansSerifStd-Light.otf / Seeing Stars.ttf / SL Mythological Silhouettes.ttf / SNsanafonkakuP.otf / SubSymbol.otf / TektonPro-Regular.otf / Throw My Hands Up in the Air.otf / Vogel Normal.ttf / ASUL-BOLD.TTF / DFSHINTEN-W5-WINP-RKSJ-H.TTF / FREDOKAONE-REGULAR.TTF / KBPLANETEARTH.TTF

Video
ID                                       : 1
Format                                   : AVC
Format/Info                              : Advanced Video Codec
Format profile                           : High 10@L5.1
Format settings                          : CABAC / 16 Ref Frames
Format settings, CABAC                   : Yes
Format settings, ReFrames                : 16 frames
Codec ID                                 : V_MPEG4/ISO/AVC
Duration                                 : 23 min 40 s
Bit rate                                 : 5 791 kb/s
Width                                    : 1 920 pixels
Height                                   : 1 080 pixels
Display aspect ratio                     : 16:9
Frame rate mode                          : Constant
Frame rate                               : 23.976 (24000/1001) FPS
Color space                              : YUV
Chroma subsampling                       : 4:2:0
Bit depth                                : 10 bits
Scan type                                : Progressive
Bits/(Pixel*Frame)                       : 0.116
Stream size                              : 980 MiB (89%)
Title                                    : [DameDesuYo]
Writing library                          : x264 core 164 r3065 ae03d92
Encoding settings                        : cabac=1 / ref=16 / deblock=1:-2:-2 / analyse=0x3:0x133 / me=tesa / subme=10 / psy=1 / psy_rd=0.90:0.00 / mixed_ref=1 / me_range=32 / chroma_me=1 / trellis=2 / 8x8dct=1 / cqm=0 / deadzone=21,11 / fast_pskip=0 / chroma_qp_offset=-2 / threads=34 / lookahead_threads=8 / sliced_threads=0 / nr=0 / decimate=0 / interlaced=0 / bluray_compat=0 / constrained_intra=0 / bframes=16 / b_pyramid=2 / b_adapt=2 / b_bias=0 / direct=1 / weightb=1 / open_gop=0 / weightp=2 / keyint=240 / keyint_min=23 / scenecut=40 / intra_refresh=0 / rc_lookahead=60 / rc=crf / mbtree=1 / crf=15.0 / qcomp=0.72 / qpmin=0 / qpmax=81 / qpstep=4 / ip_ratio=1.40 / aq=3:0.95
Language                                 : Japanese
Default                                  : Yes
Forced                                   : No
Color range                              : Limited
Color primaries                          : BT.709
Transfer characteristics                 : BT.709
Matrix coefficients                      : BT.709

Audio #1
ID                                       : 2
Format                                   : AAC LC
Format/Info                              : Advanced Audio Codec Low Complexity
Codec ID                                 : A_AAC-2
Duration                                 : 23 min 40 s
Bit rate                                 : 256 kb/s
Channel(s)                               : 2 channels
Channel layout                           : L R
Sampling rate                            : 48.0 kHz
Frame rate                               : 46.875 FPS (1024 SPF)
Compression mode                         : Lossy
Delay relative to video                  : 19 ms
Stream size                              : 43.3 MiB (4%)
Title                                    : English 2.0 AAC
Language                                 : English
Default                                  : Yes
Forced                                   : No

Audio #2
ID                                       : 3
Format                                   : AAC LC
Format/Info                              : Advanced Audio Codec Low Complexity
Codec ID                                 : A_AAC-2
Duration                                 : 23 min 40 s
Bit rate                                 : 252 kb/s
Channel(s)                               : 2 channels
Channel layout                           : L R
Sampling rate                            : 48.0 kHz
Frame rate                               : 46.875 FPS (1024 SPF)
Compression mode                         : Lossy
Stream size                              : 42.7 MiB (4%)
Title                                    : Japanese 2.0 AAC
Writing library                          : qaac 2.71, CoreAudioToolbox 7.10.6.0
Language                                 : Japanese
Default                                  : No
Forced                                   : No
Encoder Settings                         : AAC-LC Encoder, TVBR q127, Quality 96

Text #1
ID                                       : 4
Format                                   : ASS
Codec ID                                 : S_TEXT/ASS
Codec ID/Info                            : Advanced Sub Station Alpha
Duration                                 : 23 min 40 s
Bit rate                                 : 18.4 kb/s
Count of elements                        : 15194
Compression mode                         : Lossless
Stream size                              : 3.12 MiB (0%)
Title                                    : Signs & Songs
Language                                 : English
Default                                  : Yes
Forced                                   : Yes

Text #2
ID                                       : 5
Format                                   : ASS
Codec ID                                 : S_TEXT/ASS
Codec ID/Info                            : Advanced Sub Station Alpha
Duration                                 : 23 min 43 s
Bit rate                                 : 18.5 kb/s
Count of elements                        : 15582
Compression mode                         : Lossless
Stream size                              : 3.14 MiB (0%)
Title                                    : Full Subtitles [DDY]
Language                                 : English
Default                                  : No
Forced                                   : No

Menu
00:00:00.000                             : Intro
00:00:34.010                             : OP
00:02:03.980                             : Episode
00:21:50.040                             : ED
00:23:20.000                             : Preview
beta
Anime DDL+NZB mirror
Current Time: 02/12/2021 10:01



About/FAQs

Discord